<?xml version="1.0" standalone="no"?>
<!DOCTYPE svg PUBLIC "-//W3C//DTD SVG 1.1//EN" "http://www.w3.org/Graphics/SVG/1.1/DTD/svg11.dtd" >
<svg xmlns="http://www.w3.org/2000/svg" xmlns:xlink="http://www.w3.org/1999/xlink" version="1.1">
<metadata>
Created by FontForge 20170731 at Fri May  8 16:45:57 2015
 By Aleksey,,,
(URW)++,Copyright 2015 by (URW)++ Design &#38; Development
</metadata>
<defs>
<font id="DaimlerCS-Regular" horiz-adv-x="500" >
  <font-face 
    font-family="Daimler CS"
    font-weight="400"
    font-stretch="normal"
    units-per-em="1000"
    panose-1="0 0 5 0 0 0 0 0 0 0"
    ascent="670"
    descent="-330"
    x-height="474"
    cap-height="667"
    bbox="-179 -251 1138 1058"
    underline-thickness="65"
    underline-position="-226"
    unicode-range="U+0020-FB04"
  />
<missing-glyph horiz-adv-x="250" 
 />
    <glyph glyph-name="ff" unicode="ff" horiz-adv-x="568" 
d="M367 474v30q0 87 19 120q33 57 106 57q36 0 77 -15v-65q-40 18 -67 18q-43 0 -57 -39q-7 -21 -7 -74v-32h118v-57h-115v-417h-74v417h-210v-417h-74v417h-67v57h67v30q0 87 19 120q33 57 106 57q35 0 76 -15v-65q-37 18 -66 18q-43 0 -57 -39q-7 -21 -7 -74v-32h213z" />
    <glyph glyph-name="fi" unicode="fi" horiz-adv-x="505" 
d="M154 474h118v-57h-115v-417h-74v417h-67v57h67v30q0 87 19 120q33 57 106 57q36 0 76 -15v-65q-35 18 -66 18q-43 0 -57 -39q-7 -21 -7 -74v-32zM357 474h74v-474h-74v474zM395 676q22 0 36 -14.5t14 -37.5q0 -22 -14.5 -36t-36.5 -14t-36.5 14t-14.5 36t14.5 37t37.5 15
z" />
    <glyph glyph-name="fl" unicode="fl" horiz-adv-x="505" 
d="M154 474h118v-57h-115v-417h-74v417h-67v57h67v30q0 87 19 120q33 57 106 57q36 0 76 -15v-65q-35 18 -66 18q-43 0 -57 -39q-7 -21 -7 -74v-32zM357 670h74v-670h-74v670z" />
    <glyph glyph-name="ffi" unicode="ffi" horiz-adv-x="789" 
d="M367 474v30q0 87 19 120q33 57 106 57q36 0 77 -15v-65q-40 18 -67 18q-43 0 -57 -39q-7 -21 -7 -74v-32h118v-57h-115v-417h-74v417h-210v-417h-74v417h-67v57h67v30q0 87 19 120q33 57 106 57q35 0 76 -15v-65q-37 18 -66 18q-43 0 -57 -39q-7 -21 -7 -74v-32h213z
M641 474h74v-474h-74v474zM679 676q22 0 36 -14.5t14 -37.5q0 -22 -14.5 -36t-36.5 -14t-36.5 14t-14.5 36t14.5 37t37.5 15z" />
    <glyph glyph-name="ffl" unicode="ffl" horiz-adv-x="789" 
d="M367 474v30q0 87 19 120q33 57 106 57q36 0 77 -15v-65q-40 18 -67 18q-43 0 -57 -39q-7 -21 -7 -74v-32h118v-57h-115v-417h-74v417h-210v-417h-74v417h-67v57h67v30q0 87 19 120q33 57 106 57q35 0 76 -15v-65q-37 18 -66 18q-43 0 -57 -39q-7 -21 -7 -74v-32h213z
M641 670h74v-670h-74v670z" />
    <glyph glyph-name="ft" unicode="ft" horiz-adv-x="583" 
d="M368 474l3 137h68l-2 -137h113l-1 -57h-113l-4 -240v-37q0 -51 7 -67q10 -22 46 -22q32 0 68 17l-1 -62q-44 -16 -83 -16q-72 0 -98 43q-12 21 -12 69q0 16 2 77l6 238h-210v-417h-74v417h-67v57h67v30q0 87 19 120q33 57 106 57q35 0 76 -15v-65q-39 18 -66 18
q-43 0 -57 -39q-7 -21 -7 -74v-32h214z" />
    <glyph glyph-name="fft" unicode="fft" horiz-adv-x="867" 
d="M367 474v30q0 87 19 120q33 57 106 57q36 0 77 -15v-65q-37 18 -67 18q-43 0 -57 -39q-7 -21 -7 -74v-32h215l3 137h68l-2 -137h113l-1 -57h-113l-4 -240v-37q0 -51 7 -67q10 -22 46 -22q32 0 68 17l-1 -62q-44 -16 -83 -16q-72 0 -98 43q-12 21 -12 69q0 16 2 77l6 238
h-211v-417h-74v417h-210v-417h-74v417h-67v57h67v30q0 87 19 120q33 57 106 57q35 0 76 -15v-65q-39 18 -66 18q-43 0 -57 -39q-7 -21 -7 -74v-32h213z" />
    <glyph glyph-name=".notdef" horiz-adv-x="250" 
 />
    <glyph glyph-name=".null" horiz-adv-x="0" 
 />
    <glyph glyph-name="nonmarkingreturn" horiz-adv-x="333" 
 />
    <glyph glyph-name="space" unicode=" " horiz-adv-x="250" 
 />
    <glyph glyph-name="exclam" unicode="!" horiz-adv-x="249" 
d="M87 654h76l-12 -467h-56zM126 105q23 0 40 -17t17 -41q0 -23 -17 -40t-41 -17t-41 17t-17 40q0 24 17 41t42 17z" />
    <glyph glyph-name="quotedbl" unicode="&#x22;" horiz-adv-x="352" 
d="M133 399h-51l-12 268h75zM270 399h-51l-11 268h74z" />
    <glyph glyph-name="numbersign" unicode="#" horiz-adv-x="600" 
d="M544 267l-9 -55h-114l-34 -212h-63l34 212h-149l-34 -212h-63l34 212h-114l9 55h114l23 145h-114l8 55h114l32 200h63l-32 -200h149l31 200h64l-32 -200h115l-9 -55h-115l-23 -145h115zM389 412h-148l-23 -145h148z" />
    <glyph glyph-name="dollar" unicode="$" horiz-adv-x="533" 
d="M287 612v-233q80 -29 117 -52q84 -53 84 -149q0 -80 -54.5 -131t-146.5 -57v-73h-40v72q-95 6 -148 58.5t-54 143.5h72q8 -125 130 -136v259q-81 29 -109 45q-77 47 -77 139q0 76 50.5 124.5t135.5 55.5v65h40v-65q78 -5 126.5 -49t50.5 -111h-74q-3 38 -31 63.5
t-72 30.5zM247 393v219q-55 -7 -84 -35.5t-29 -72.5q0 -54 48 -83q10 -6 65 -28zM287 299v-245q59 6 92 36.5t33 79.5q0 59 -47 93q-19 14 -78 36z" />
    <glyph glyph-name="percent" unicode="%" horiz-adv-x="573" 
d="M451 667h62l-391 -667h-62zM424 315q53 0 89 -46.5t36 -113.5q0 -68 -36.5 -114t-89.5 -46q-54 0 -90.5 46t-36.5 114t36.5 114t91.5 46zM423 265q-31 0 -50.5 -31t-19.5 -79t19.5 -79t49.5 -31q31 0 50.5 31t19.5 79q0 47 -19.5 78.5t-49.5 31.5zM152 672
q52 0 88.5 -46.5t36.5 -113.5q0 -68 -36.5 -114t-89.5 -46q-54 0 -90.5 46t-36.5 114t36.5 114t91.5 46zM151 622q-31 0 -50.5 -31t-19.5 -79t19.5 -79t50.5 -31q30 0 49.5 31t19.5 79q0 47 -19.5 78.5t-49.5 31.5z" />
    <glyph glyph-name="ampersand" unicode="&#x26;" horiz-adv-x="592" 
d="M436 307h60v-21q0 -105 -44 -171l86 -115h-81l-46 63q-65 -69 -166 -69q-91 0 -146.5 49.5t-55.5 129.5q0 56 29 100t105 102q-50 65 -63.5 92t-13.5 62q0 58 40.5 94t105.5 36q61 0 97.5 -34t36.5 -91q0 -46 -24.5 -85t-83.5 -87l140 -191q24 45 24 136zM232 411
q83 65 83 125q0 29 -20 47.5t-51 18.5q-32 0 -54 -19.5t-22 -48.5q0 -26 9.5 -44t54.5 -79zM372 114l-154 206q-39 -29 -62 -52q-42 -42 -42 -97q0 -50 38 -84t95 -34q76 0 125 61z" />
    <glyph glyph-name="quotesingle" unicode="'" horiz-adv-x="250" 
d="M151 399h-51l-12 268h75z" />
    <glyph glyph-name="parenleft" unicode="(" horiz-adv-x="281" 
d="M193 672h54q-106 -144 -106 -434q0 -287 106 -438h-54q-121 150 -121 436q0 290 121 436z" />
    <glyph glyph-name="parenright" unicode=")" horiz-adv-x="281" 
d="M87 -200h-54q106 151 106 435q0 293 -106 437h54q121 -144 121 -436q0 -285 -121 -436z" />
    <glyph glyph-name="asterisk" unicode="*" 
d="M226 527v123h47v-123l117 38l14 -45l-116 -38l72 -99l-39 -28l-71 99l-72 -99l-39 28l72 99l-116 38l14 45z" />
    <glyph glyph-name="plus" unicode="+" horiz-adv-x="533" 
d="M294 362h186v-52h-186v-194h-55v194h-186v52h186v193h55v-193z" />
    <glyph glyph-name="comma" unicode="," horiz-adv-x="239" 
d="M97 -146h-63q31 31 54 72.5t27 72.5h-8q-23 0 -38.5 16t-15.5 39q0 24 18 41t43 17q29 0 46.5 -21.5t17.5 -56.5q0 -79 -81 -180z" />
    <glyph glyph-name="hyphen" unicode="-" horiz-adv-x="274" 
d="M0 279h274v-55h-274v55z" />
    <glyph glyph-name="period" unicode="." horiz-adv-x="255" 
d="M129 105q23 0 40 -17t17 -41q0 -23 -17 -40t-41 -17t-41 17t-17 40q0 25 17 41.5t42 16.5z" />
    <glyph glyph-name="slash" unicode="/" horiz-adv-x="570" 
d="M54 -149l392 816h70l-392 -816h-70z" />
    <glyph glyph-name="zero" unicode="0" horiz-adv-x="533" 
d="M269 660q98 0 154.5 -90t56.5 -245q0 -156 -57 -245t-157 -89q-92 0 -144 71q-69 97 -69 262q0 159 57 247.5t159 88.5zM268 599q-65 0 -97 -59q-43 -80 -43 -216q0 -135 43 -213q31 -59 95 -59q65 0 96 59q43 80 43 214q0 137 -43 215q-31 59 -94 59z" />
    <glyph glyph-name="one" unicode="1" horiz-adv-x="533" 
d="M172 507v47q62 2 94.5 25.5t43.5 75.5h50v-655h-71v507h-117z" />
    <glyph glyph-name="two" unicode="2" horiz-adv-x="533" 
d="M145 462h-67q1 96 50.5 147t140.5 51q80 0 129 -43.5t49 -114.5q0 -57 -45 -127q-15 -22 -150 -199l-65 -84l-20 -27h290v-65h-382v57q12 16 79 103q151 196 184.5 248t33.5 92q0 43 -29.5 69t-77.5 26q-111 0 -120 -133z" />
    <glyph glyph-name="three" unicode="3" horiz-adv-x="533" 
d="M150 484h-65q5 83 53.5 129.5t132.5 46.5q81 0 130.5 -44.5t49.5 -117.5q0 -101 -98 -144q119 -41 119 -163q0 -91 -56.5 -145.5t-150.5 -54.5t-148.5 49.5t-54.5 134.5v10h66q2 -63 36.5 -96.5t97.5 -33.5q64 0 100 35.5t36 97.5q0 128 -155 128q-13 0 -24 -1v64l26 -1
q61 0 96 30.5t35 84.5q0 47 -29.5 75t-80.5 28q-101 0 -116 -112z" />
    <glyph glyph-name="four" unicode="4" horiz-adv-x="533" 
d="M380 221h113v-63h-112v-164h-73v164h-267v56l264 441h75v-434zM311 221l1 340l-200 -340h199z" />
    <glyph glyph-name="five" unicode="5" horiz-adv-x="533" 
d="M130 650h299l-9 -64h-232l-27 -191q46 46 112 46q86 0 138.5 -58.5t52.5 -154.5q0 -88 -47 -153q-59 -84 -162 -84q-80 0 -130 45t-55 121h68q17 -103 115 -103q61 0 98.5 47t37.5 123q0 70 -33.5 112t-89.5 42q-76 0 -117 -71l-65 7z" />
    <glyph glyph-name="six" unicode="6" horiz-adv-x="533" 
d="M311 665h81q-109 -118 -185 -245q36 18 74 18q80 0 131 -61.5t51 -158.5q0 -101 -53.5 -164t-139.5 -63q-88 0 -144.5 63.5t-56.5 163.5q0 97 58 204t184 243zM266 378q-54 0 -88 -45.5t-34 -116.5t35 -117t88 -46q55 0 88 44.5t33 118.5q0 71 -34 116.5t-88 45.5z" />
    <glyph glyph-name="seven" unicode="7" horiz-adv-x="533" 
d="M64 650h405v-60l-318 -590h-81l315 582h-321v68z" />
    <glyph glyph-name="eight" unicode="8" horiz-adv-x="533" 
d="M163 342q-78 42 -78 139q0 77 52 128t130 51q77 0 129 -51t52 -127q0 -98 -78 -140q96 -52 96 -162q0 -83 -56 -136t-143 -53q-88 0 -143.5 53t-55.5 136q0 112 95 162zM268 599q-49 0 -78.5 -31.5t-29.5 -83.5q0 -50 30 -82t77 -32t77 32t30 83q0 50 -30 82t-76 32z
M269 311q-57 0 -91.5 -35.5t-34.5 -94.5q0 -57 34.5 -93t89.5 -36t89.5 36t34.5 94q0 56 -34.5 92.5t-87.5 36.5z" />
    <glyph glyph-name="nine" unicode="9" horiz-adv-x="533" 
d="M221 -15h-81q110 119 185 246q-35 -18 -74 -18q-78 0 -130 62t-52 156q0 100 56 164.5t143 64.5q88 0 141.5 -62.5t53.5 -164.5q0 -191 -242 -448zM269 598q-55 0 -90 -45.5t-35 -118.5q0 -71 34 -116t88 -45t88 45t34 117t-33 117.5t-86 45.5z" />
    <glyph glyph-name="colon" unicode=":" horiz-adv-x="255" 
d="M129 105q23 0 40 -17t17 -41q0 -23 -17 -40t-41 -17t-41 17t-17 40q0 25 17 41.5t42 16.5zM129 474q23 0 40 -17t17 -41q0 -23 -17 -40t-41 -17t-41 17t-17 40q0 25 17 41.5t42 16.5z" />
    <glyph glyph-name="semicolon" unicode=";" horiz-adv-x="239" 
d="M114 474q23 0 40 -17t17 -41q0 -23 -17 -40t-41 -17t-41 17t-17 40q0 25 17 41.5t42 16.5zM97 -146h-63q31 31 54 72.5t27 72.5h-8q-23 0 -38.5 16t-15.5 39q0 24 18 41t43 17q29 0 46.5 -21.5t17.5 -56.5q0 -79 -81 -180z" />
    <glyph glyph-name="less" unicode="&#x3c;" 
d="M466 569v-70l-358 -163l358 -162v-70l-433 202v61z" />
    <glyph glyph-name="equal" unicode="=" horiz-adv-x="533" 
d="M53 429h427v-54h-427v54zM53 296h427v-54h-427v54z" />
    <glyph glyph-name="greater" unicode="&#x3e;" 
d="M34 104v70l358 162l-358 163v70l433 -202v-61z" />
    <glyph glyph-name="question" unicode="?" horiz-adv-x="412" 
d="M189 105q23 0 40 -17t17 -41q0 -23 -17 -40t-41 -17t-41 17t-17 40q0 24 17 41t42 17zM223 189h-69v11v44q0 64 10.5 89t58.5 74q38 39 51.5 62t13.5 50q0 35 -22 55t-61 20q-87 0 -96 -96h-62q8 162 164 162q71 0 112.5 -38t41.5 -103q0 -40 -17 -70t-68 -80
q-40 -40 -48.5 -62t-8.5 -83v-35z" />
    <glyph glyph-name="at" unicode="@" horiz-adv-x="733" 
d="M496 494h53l-41 -211q-7 -35 -7 -47q0 -22 10.5 -35.5t27.5 -13.5q43 0 77 59.5t34 134.5q0 112 -74 181.5t-193 69.5q-128 0 -211.5 -85t-83.5 -215q0 -126 79 -211q81 -85 227 -85q108 0 209 46l14 -47q-101 -47 -223 -47q-165 0 -261 96q-47 46 -73 112t-26 137
q0 149 99.5 247.5t249.5 98.5q139 0 228 -83t89 -213q0 -95 -49.5 -167.5t-114.5 -72.5q-30 0 -49.5 18.5t-23.5 50.5q-47 -71 -124 -71q-62 0 -102 45.5t-40 116.5q0 85 51.5 144t124.5 59q80 0 111 -76zM377 454q-50 0 -85 -44t-35 -108q0 -51 24.5 -81t67.5 -30
q49 0 82 46t33 115q0 48 -23 75t-64 27z" />
    <glyph glyph-name="A" unicode="A" horiz-adv-x="566" 
d="M250 671h65l230 -671h-78l-59 177h-251l-60 -177h-77zM387 242l-105 332l-105 -332h210z" />
    <glyph glyph-name="B" unicode="B" horiz-adv-x="549" 
d="M86 667h122q114 0 163 -16q49 -17 76 -56t27 -94q0 -111 -111 -146q146 -35 146 -169q0 -61 -30.5 -107t-81.5 -62q-52 -17 -195 -17h-116v667zM160 380h63q88 0 125 21q50 27 50 95q0 74 -60 96q-31 12 -119 12h-59v-224zM160 63h67q105 0 144 17q59 26 59 110
q0 42 -20.5 72.5t-55.5 42.5q-40 12 -127 12h-67v-254z" />
    <glyph glyph-name="C" unicode="C" horiz-adv-x="601" 
d="M547 482h-70q-28 131 -152 131q-89 0 -141.5 -75.5t-52.5 -204.5q0 -130 52 -204.5t143 -74.5q70 0 111.5 44t49.5 128h71q-9 -114 -68.5 -176t-160.5 -62q-128 0 -203 93t-75 250q0 158 75 253t200 95q93 0 150.5 -51.5t70.5 -145.5z" />
    <glyph glyph-name="D" unicode="D" horiz-adv-x="627" 
d="M86 667h105q97 0 145.5 -8t88.5 -30q70 -38 110.5 -117.5t40.5 -177.5q0 -102 -41.5 -181t-115.5 -117q-41 -22 -87.5 -29t-148.5 -7h-97v667zM161 65h49q79 0 113 6.5t69 27.5q50 31 77.5 92t27.5 143q0 86 -30.5 149t-86.5 92q-32 17 -66 22t-123 5h-30v-537z" />
    <glyph glyph-name="E" unicode="E" horiz-adv-x="502" 
d="M161 378h270v-65h-270v-248h298v-65h-373v667h366v-65h-291v-224z" />
    <glyph glyph-name="F" unicode="F" horiz-adv-x="487" 
d="M161 378h270v-65h-270v-313h-75v667h366v-65h-291v-224z" />
    <glyph glyph-name="G" unicode="G" horiz-adv-x="622" 
d="M356 331h203v-274q-95 -69 -220 -69q-135 0 -211.5 92t-76.5 255q0 157 75.5 250.5t202.5 93.5q94 0 152 -51t69 -145h-70q-29 130 -151 130q-92 0 -145 -74.5t-53 -204.5q0 -134 54.5 -207t154.5 -73q78 0 151 44v169l-135 -1v65z" />
    <glyph glyph-name="H" unicode="H" horiz-adv-x="634" 
d="M161 380h313v287h75v-667h-75v318h-313v-318h-75v667h75v-287z" />
    <glyph glyph-name="I" unicode="I" horiz-adv-x="246" 
d="M162 0h-77v667h77v-667z" />
    <glyph glyph-name="J" unicode="J" horiz-adv-x="288" 
d="M127 667h77v-532q0 -70 -3 -95t-13 -47q-38 -80 -166 -80h-24v65h11h6q81 2 102 47q10 22 10 110v532z" />
    <glyph glyph-name="K" unicode="K" horiz-adv-x="558" 
d="M432 667h91l-272 -315l298 -352h-102l-285 350zM86 667h75v-667h-75v667z" />
    <glyph glyph-name="L" unicode="L" horiz-adv-x="475" 
d="M86 667h77v-602h285v-65h-362v667z" />
    <glyph glyph-name="M" unicode="M" horiz-adv-x="773" 
d="M86 667h113l187 -585l188 585h113v-667h-71v592l-192 -592h-75l-192 592v-592h-71v667z" />
    <glyph glyph-name="N" unicode="N" horiz-adv-x="643" 
d="M86 667h81l320 -555v555h70v-667h-82l-318 554v-554h-71v667z" />
    <glyph glyph-name="O" unicode="O" horiz-adv-x="646" 
d="M323 679q121 0 196 -95.5t75 -249.5t-75 -249.5t-196 -95.5q-123 0 -197.5 96t-74.5 254q0 149 76 244.5t196 95.5zM323 613q-86 0 -139 -75.5t-53 -199.5q0 -130 52 -206.5t140 -76.5q86 0 138.5 76.5t52.5 202.5t-52.5 202.5t-138.5 76.5z" />
    <glyph glyph-name="P" unicode="P" horiz-adv-x="526" 
d="M86 667h110q131 0 184 -18q55 -18 86.5 -67t31.5 -115q0 -62 -27.5 -108t-76.5 -65q-54 -22 -184 -22h-49v-272h-75v667zM161 337h47q84 0 124 9q42 10 64.5 41.5t22.5 79.5q0 92 -68 119q-41 16 -151 16h-39v-265z" />
    <glyph glyph-name="Q" unicode="Q" horiz-adv-x="656" 
d="M550 133l131 -141h-91l-79 83q-74 -86 -189 -86q-120 0 -195.5 96t-75.5 249t75.5 249t196.5 96q119 0 195 -96t76 -248q0 -113 -44 -202zM322 613q-84 0 -137.5 -77.5t-53.5 -198.5q0 -127 53 -205t139 -78q85 0 138 77.5t53 201.5q0 125 -53.5 202.5t-138.5 77.5z" />
    <glyph glyph-name="R" unicode="R" horiz-adv-x="561" 
d="M86 667h118q131 0 185 -21q50 -20 79 -64.5t29 -103.5q0 -131 -137 -181l175 -297h-90l-168 285h-116v-285h-75v667zM161 350h47q98 0 135 13q75 27 75 116q0 80 -63 107q-23 10 -50 13t-99 3h-45v-252z" />
    <glyph glyph-name="S" unicode="S" horiz-adv-x="547" 
d="M473 494h-73q-5 57 -39 88t-91 31q-53 0 -87.5 -29t-34.5 -73t40 -70q22 -15 119 -59q112 -49 145 -88q40 -48 40 -115q0 -85 -60 -137.5t-158 -52.5q-121 0 -180 77q-37 48 -43 137h73q5 -72 44 -110t109 -38q61 0 99.5 32.5t38.5 82.5q0 48 -40 82q-25 21 -104 56
q-100 45 -136 73q-62 48 -62 124t56.5 125t144.5 49q111 0 165 -76q30 -41 34 -109z" />
    <glyph glyph-name="T" unicode="T" horiz-adv-x="463" 
d="M21 667h422v-65h-174v-602h-75v602h-173v65z" />
    <glyph glyph-name="U" unicode="U" horiz-adv-x="625" 
d="M77 667h75v-393q0 -73 4 -102t17 -52q18 -30 55.5 -47.5t84.5 -17.5q52 0 90.5 20.5t54.5 57.5q15 34 15 141v393h75v-394q0 -79 -2.5 -106t-13.5 -54q-24 -59 -82 -91.5t-137 -32.5q-80 0 -138 32.5t-82 91.5q-11 27 -13.5 54t-2.5 106v394z" />
    <glyph glyph-name="V" unicode="V" horiz-adv-x="561" 
d="M13 667h79l190 -580l187 580h78l-229 -671h-76z" />
    <glyph glyph-name="W" unicode="W" horiz-adv-x="777" 
d="M18 667h71l129 -568l139 568h64l139 -568l130 568h70l-159 -671h-81l-132 521l-131 -521h-81z" />
    <glyph glyph-name="X" unicode="X" horiz-adv-x="543" 
d="M32 667h86l154 -256l156 256h86l-198 -318l208 -349h-85l-167 279l-167 -279h-85l209 349z" />
    <glyph glyph-name="Y" unicode="Y" horiz-adv-x="512" 
d="M12 667h86l160 -312l157 312h86l-208 -387l1 -280h-75l1 280z" />
    <glyph glyph-name="Z" unicode="Z" horiz-adv-x="493" 
d="M52 667h410v-51l-343 -551h337v-65h-425v58l340 545h-319v64z" />
    <glyph glyph-name="bracketleft" unicode="[" horiz-adv-x="281" 
d="M92 667h150v-58h-84v-745h84v-58h-150v861z" />
    <glyph glyph-name="backslash" unicode="\" horiz-adv-x="570" 
d="M516 -149h-70l-392 816h70z" />
    <glyph glyph-name="bracketright" unicode="]" horiz-adv-x="281" 
d="M189 -194h-150v58h84v745h-84v58h150v-861z" />
    <glyph glyph-name="asciicircum" unicode="^" 
d="M102 367h-76l178 302h92l178 -302h-77l-148 246z" />
    <glyph glyph-name="underscore" unicode="_" 
d="M0 -66h500v-65h-500v65z" />
    <glyph glyph-name="grave" unicode="`" 
d="M312 547h-59l-145 137h100z" />
    <glyph glyph-name="a" unicode="a" horiz-adv-x="476" 
d="M132 350h-69q8 67 53 102t124 35q58 0 98.5 -20.5t53.5 -57.5q11 -29 11 -106v-178q-1 -86 13 -125h-67q-7 22 -11 64q-42 -76 -139 -76q-70 0 -111.5 37.5t-41.5 99.5q0 101 110 142q59 22 178 42v20q0 53 -22 75.5t-75 22.5q-90 0 -105 -77zM334 210v47
q-119 -21 -167.5 -49.5t-48.5 -77.5q0 -37 25.5 -60t66.5 -23q71 0 105 56q19 34 19 107z" />
    <glyph glyph-name="b" unicode="b" horiz-adv-x="508" 
d="M73 670h70v-265q52 82 136 82q82 0 133 -68.5t51 -179.5q0 -113 -53 -182t-139 -69q-84 0 -131 79q0 -40 -8 -67h-67q8 33 8 134v536zM272 426q-59 0 -94.5 -52t-35.5 -139q0 -84 34.5 -135t90.5 -51t90 51.5t34 138.5q0 86 -32 136.5t-87 50.5z" />
    <glyph glyph-name="c" unicode="c" horiz-adv-x="465" 
d="M416 320h-69q-10 58 -33.5 82.5t-69.5 24.5q-59 0 -93 -50.5t-34 -139.5t34 -139t95 -50q47 0 72.5 28t31.5 87h70q-7 -85 -51.5 -130t-122.5 -45q-91 0 -146 67.5t-55 180.5q0 115 54.5 183t146.5 68q75 0 118.5 -43t51.5 -124z" />
    <glyph glyph-name="d" unicode="d" horiz-adv-x="508" 
d="M434 670v-530q0 -108 9 -140h-69q-7 27 -7 51q0 9 1 17q-25 -43 -56.5 -61.5t-77.5 -18.5q-86 0 -138 67t-52 178q0 113 51.5 183.5t134.5 70.5q46 0 77.5 -19t56.5 -61v263h70zM242 426q-59 0 -92.5 -51t-33.5 -139q0 -86 33.5 -136.5t90.5 -50.5q58 0 91.5 51t33.5 137
t-33.5 137.5t-89.5 51.5z" />
    <glyph glyph-name="e" unicode="e" horiz-adv-x="486" 
d="M440 225h-323q2 -86 37 -131.5t100 -45.5q39 0 64.5 16.5t45.5 55.5l65 -8q-44 -124 -176 -124q-95 0 -151.5 66t-56.5 178q0 116 55.5 185.5t148.5 69.5q88 0 140 -66t52 -176q0 -11 -1 -20zM119 280h249q-6 72 -37.5 110t-84.5 38q-106 0 -127 -148z" />
    <glyph glyph-name="f" unicode="f" horiz-adv-x="284" 
d="M154 474h118v-57h-115v-417h-74v417h-67v57h67v30q0 90 20 122q33 55 106 55q33 0 75 -15v-65q-35 18 -66 18q-43 0 -57 -39q-7 -20 -7 -74v-32z" />
    <glyph glyph-name="g" unicode="g" horiz-adv-x="483" 
d="M461 474v-53l-97 2q41 -38 41 -109t-46 -107q-30 -23 -109 -40q-55 -12 -72 -20q-28 -14 -28 -32q0 -15 16.5 -20.5t78.5 -11.5q70 -7 98 -12.5t51 -18.5q63 -33 63 -109q0 -68 -57.5 -107.5t-157.5 -39.5q-97 0 -155 37.5t-58 99.5q0 43 23.5 70.5t76.5 46.5
q-51 19 -51 55q0 24 19.5 41.5t65.5 34.5q-95 38 -95 137q0 73 47.5 117.5t126.5 44.5q36 0 74 -11zM241 424q-47 0 -76.5 -29t-29.5 -75q0 -44 28 -71t74 -27t74 27t28 71q0 45 -27.5 74.5t-70.5 29.5zM238 19q-69 0 -107 -21.5t-38 -60.5q0 -38 41 -60.5t109 -22.5
q67 0 106.5 22.5t39.5 60.5q0 82 -151 82z" />
    <glyph glyph-name="h" unicode="h" horiz-adv-x="502" 
d="M73 670h70v-252q51 69 136 69q89 0 129 -62q14 -22 18.5 -51.5t4.5 -101.5v-272h-70v268q0 81 -13 110q-24 47 -84 47q-66 0 -99 -57q-22 -37 -22 -107v-261h-70v670z" />
    <glyph glyph-name="i" unicode="i" horiz-adv-x="221" 
d="M73 474h74v-474h-74v474zM111 676q22 0 36 -14.5t14 -37.5q0 -22 -14.5 -36t-36.5 -14t-36.5 14t-14.5 36t14.5 37t37.5 15z" />
    <glyph glyph-name="j" unicode="j" horiz-adv-x="251" 
d="M105 474h74v-433q0 -80 -6.5 -113.5t-26.5 -58.5q-43 -56 -149 -56h-12h-12v62h9h7q75 3 96.5 33.5t19.5 132.5v433zM143 676q22 0 36 -14.5t14 -37.5q0 -22 -14.5 -36t-36.5 -14t-36.5 14t-14.5 36t14.5 37t37.5 15z" />
    <glyph glyph-name="k" unicode="k" horiz-adv-x="482" 
d="M344 474h85l-198 -213l213 -261h-97l-203 258zM73 670h70v-670h-70v670z" />
    <glyph glyph-name="l" unicode="l" horiz-adv-x="221" 
d="M73 670h74v-670h-74v670z" />
    <glyph glyph-name="m" unicode="m" horiz-adv-x="765" 
d="M62 474h69q9 -26 9 -65q44 78 138 78q96 0 131 -83q47 83 146 83q88 0 122 -61q12 -21 15 -44.5t3 -91.5v-290h-70v290q0 72 -13 96q-21 38 -79 38q-63 0 -94 -50q-19 -32 -19 -94v-280h-70v279q0 81 -10 101q-20 45 -81 45q-66 0 -96 -52q-19 -35 -19 -97v-276h-70v327
q0 73 -2 95t-10 52z" />
    <glyph glyph-name="n" unicode="n" horiz-adv-x="504" 
d="M61 474h67q10 -29 9 -69q49 82 144 82q48 0 84 -20.5t52 -56.5q10 -24 12.5 -46.5t2.5 -91.5v-272h-70v268q0 83 -13 110q-22 47 -82 47q-67 0 -102 -56q-23 -36 -23 -104v-265h-70v313q0 82 -1.5 104.5t-9.5 56.5z" />
    <glyph glyph-name="o" unicode="o" horiz-adv-x="504" 
d="M252 487q92 0 149.5 -69.5t57.5 -180.5q0 -110 -58 -179.5t-149 -69.5q-92 0 -149.5 70t-57.5 183q0 107 58 176.5t149 69.5zM252 427q-60 0 -97.5 -52t-37.5 -135q0 -87 37 -139.5t98 -52.5t98 52t37 138q0 85 -37 137t-98 52z" />
    <glyph glyph-name="p" unicode="p" horiz-adv-x="508" 
d="M73 -197v530q-1 108 -9 141h69q7 -24 8 -70q49 83 134 83t136.5 -69t51.5 -182q0 -112 -50.5 -180t-132.5 -68q-86 0 -137 78v-263h-70zM270 426q-58 0 -93 -52t-35 -137q0 -84 35.5 -136t92.5 -52t89 49.5t32 135.5q0 88 -33 140t-88 52z" />
    <glyph glyph-name="q" unicode="q" horiz-adv-x="508" 
d="M364 -197v262q-51 -77 -131 -77q-85 0 -137 67.5t-52 177.5q0 114 52.5 184t138.5 70q88 0 130 -82q1 48 9 69h69q-9 -33 -9 -141v-530h-70zM240 426q-56 0 -90 -52.5t-34 -140.5q0 -84 32.5 -134t87.5 -50q59 0 94 51.5t35 137.5q0 84 -34.5 136t-90.5 52z" />
    <glyph glyph-name="r" unicode="r" horiz-adv-x="327" 
d="M66 474h67q9 -36 9 -73q0 -3 -2 -29q49 115 123 115q27 0 57 -15v-70q-42 19 -64 19q-27 0 -51 -19.5t-40 -53.5q-20 -47 -20 -136v-212h-71v311q-1 118 -8 163z" />
    <glyph glyph-name="s" unicode="s" horiz-adv-x="438" 
d="M387 344h-68q-10 85 -97 85q-40 0 -65.5 -19.5t-25.5 -51.5q0 -29 21 -44.5t89 -35.5q100 -29 125 -58q29 -32 29 -84q0 -68 -46.5 -108t-125.5 -40q-86 0 -132.5 41t-46.5 118h68q9 -100 110 -100q46 0 73.5 22.5t27.5 60.5q0 37 -30 56q-17 10 -106 38q-69 21 -98 50.5
t-29 78.5q0 60 45 97t118 37q76 0 118 -37t46 -106z" />
    <glyph glyph-name="t" unicode="t" horiz-adv-x="314" 
d="M169 474h113l-1 -57h-113l-4 -240v-37q0 -51 7 -67q10 -22 46 -22q32 0 68 17l-1 -62q-44 -16 -83 -16q-72 0 -97 43q-13 21 -13 69q0 16 2 77l6 238h-72l1 57h72l3 137h69z" />
    <glyph glyph-name="u" unicode="u" horiz-adv-x="497" 
d="M71 474h70v-290q0 -69 16 -95q25 -38 81 -38q63 0 96 53q20 34 20 101v269h70v-330q0 -79 1.5 -98.5t9.5 -45.5h-69q-8 26 -10 63q-21 -40 -50.5 -57.5t-75.5 -17.5q-96 0 -138 72q-21 35 -21 124v290z" />
    <glyph glyph-name="v" unicode="v" horiz-adv-x="431" 
d="M10 474h73l133 -398l132 398h72l-168 -480h-74z" />
    <glyph glyph-name="w" unicode="w" horiz-adv-x="661" 
d="M15 474h72l102 -376l111 376h60l111 -376l102 376h72l-137 -480h-69l-109 372l-110 -372h-68z" />
    <glyph glyph-name="x" unicode="x" horiz-adv-x="441" 
d="M31 474h81l109 -169l110 169h85l-152 -222l171 -252h-84l-130 196l-131 -196h-84l173 252z" />
    <glyph glyph-name="y" unicode="y" horiz-adv-x="438" 
d="M16 474h75l128 -395l134 395h73l-156 -441q-33 -94 -47 -123t-37 -54q-51 -56 -138 -56q-12 0 -21 1v62q68 -1 97 24t57 108z" />
    <glyph glyph-name="z" unicode="z" horiz-adv-x="398" 
d="M43 474h334v-52l-272 -364h267v-58h-350v55l269 361h-248v58z" />
    <glyph glyph-name="braceleft" unicode="{" horiz-adv-x="281" 
d="M166 516v-159q-1 -51 -12.5 -76.5t-43.5 -44.5q32 -19 43.5 -44t12.5 -76v-159q-1 -62 17 -81.5t77 -20.5v-54q-8 -1 -16 -1q-81 0 -111.5 34t-30.5 125v158q0 44 -12 65t-44 31v47q32 9 44 30t12 66v157q-1 92 33 126.5t125 32.5v-54q-59 -1 -77 -20.5t-17 -81.5z" />
    <glyph glyph-name="bar" unicode="|" 
d="M215 667h70v-834h-70v834z" />
    <glyph glyph-name="braceright" unicode="}" horiz-adv-x="281" 
d="M114 -43v159q1 51 12.5 76t43.5 44q-32 19 -43.5 44.5t-12.5 76.5v159q1 62 -17 81.5t-76 20.5v54q90 2 124 -32.5t33 -126.5v-157q0 -45 12.5 -66t44.5 -30v-47q-32 -9 -44.5 -30.5t-12.5 -65.5v-158q0 -90 -30.5 -124.5t-110.5 -34.5q-8 0 -16 1v54q58 1 76 20.5
t17 81.5z" />
    <glyph glyph-name="asciitilde" unicode="~" horiz-adv-x="667" 
d="M135 217l-42 27q31 64 61.5 89t74.5 25q38 0 113 -35q70 -33 97 -33q29 0 49 15t43 55l42 -26q-55 -111 -142 -111q-22 0 -47.5 9t-92.5 40q-39 19 -67 19q-50 0 -89 -74z" />
    <glyph glyph-name="uni00A0" unicode="&#xa0;" horiz-adv-x="250" 
 />
    <glyph glyph-name="exclamdown" unicode="&#xa1;" horiz-adv-x="249" 
d="M162 -191h-76l12 467h56zM124 474q24 0 41 -17t17 -40q0 -25 -17 -41.5t-42 -16.5q-23 0 -40 17t-17 41q0 23 17 40t41 17z" />
    <glyph glyph-name="cent" unicode="&#xa2;" horiz-adv-x="533" 
d="M289 526v-377q84 10 95 114h70q-2 -73 -49 -122.5t-116 -52.5v-102h-40v104q-80 13 -125 77.5t-45 165.5q0 104 45 170t126 82v95h40v-93q71 -4 113.5 -48.5t46.5 -118.5h-71q-3 50 -24.5 75.5t-65.5 30.5zM250 151v372q-47 -16 -73.5 -66t-26.5 -122q0 -105 55 -160
q16 -16 45 -24z" />
    <glyph glyph-name="sterling" unicode="&#xa3;" horiz-adv-x="533" 
d="M227 370h150v-59h-160q-26 -173 -70 -252q46 9 96 9q20 0 77 -1h21q46 0 62.5 16.5t18.5 63.5h64q-1 -81 -39 -116.5t-118 -30.5h-275q47 70 89 311h-96v59h106q22 129 37 186q19 65 52 93.5t89 28.5q80 0 110 -53q16 -29 19 -84h-66q-4 41 -17.5 57.5t-44.5 16.5
q-53 0 -69 -59q-13 -44 -33 -167z" />
    <glyph glyph-name="currency" unicode="&#xa4;" horiz-adv-x="667" 
d="M55 123l94 95q-51 62 -51 141q0 73 51 142l-96 95l41 41l95 -95q67 49 144 49q79 0 143 -48l95 93l40 -40l-94 -94q51 -64 51 -142q0 -79 -50 -142l95 -95l-40 -41l-95 95q-65 -49 -144 -49q-73 0 -144 49l-94 -95zM335 528q-71 0 -120.5 -49t-49.5 -120
q0 -69 49.5 -118.5t118.5 -49.5t118.5 49.5t49.5 118.5q0 70 -49 119.5t-117 49.5z" />
    <glyph glyph-name="yen" unicode="&#xa5;" horiz-adv-x="533" 
d="M385 425h97v-49h-123l-40 -79h163v-49h-175l1 -248h-76l1 248h-182v49h170l-42 79h-128v49h102l-130 242h85l161 -313l160 313h81z" />
    <glyph glyph-name="brokenbar" unicode="&#xa6;" 
d="M215 667h70v-333h-70v333zM215 153h70v-320h-70v320z" />
    <glyph glyph-name="section" unicode="&#xa7;" 
d="M423 494h-64q-6 56 -31.5 81.5t-74.5 25.5q-45 0 -73 -24t-28 -62q0 -30 17.5 -48t77.5 -52q103 -57 135 -80q50 -39 50 -96q0 -79 -87 -127q36 -28 51.5 -56.5t15.5 -66.5q0 -72 -47 -113t-129 -41q-177 0 -180 171h65q5 -48 20 -71q30 -41 94 -41q51 0 80 25.5t29 69.5
q0 27 -12.5 45.5t-46.5 40.5q-22 14 -121 71q-101 58 -101 130q0 73 91 122q-70 47 -70 115q0 64 47.5 105.5t120.5 41.5q79 0 123.5 -43.5t47.5 -122.5zM206 366q-76 -36 -76 -88q0 -30 32 -57t132 -79q71 35 71 91q0 37 -37 62q-47 31 -122 71z" />
    <glyph glyph-name="dieresis" unicode="&#xa8;" 
d="M165 672q22 0 37 -15.5t15 -36.5q0 -22 -15 -37.5t-37 -15.5t-37.5 15.5t-15.5 36.5q0 23 15 38t38 15zM335 672q22 0 37 -15.5t15 -36.5q0 -22 -15 -37.5t-37 -15.5t-37.5 15.5t-15.5 36.5q0 23 15 38t38 15z" />
    <glyph glyph-name="copyright" unicode="&#xa9;" horiz-adv-x="789" 
d="M552 423h-51q-17 77 -93 77q-55 0 -87 -43.5t-32 -117.5t32 -117.5t87 -43.5q90 0 99 101h51q-5 -69 -44 -108t-104 -39q-81 0 -129.5 56t-48.5 150t48 151t128 57q61 0 98.5 -32t45.5 -91zM399 680q140 0 240.5 -101.5t100.5 -243.5q0 -143 -101 -244t-244 -101
q-142 0 -243.5 101t-101.5 243q0 145 101.5 245.5t247.5 100.5zM399 639q-127 0 -215 -88.5t-88 -216.5q0 -126 87.5 -215t211.5 -89t211.5 89t87.5 216q0 124 -87 214t-208 90z" />
    <glyph glyph-name="ordfeminine" unicode="&#xaa;" 
d="M185 585h-49q8 90 115 90q77 0 98 -49q7 -18 7 -66v-107q0 -57 9 -79h-47q-6 16 -7 33q-34 -41 -86 -41q-45 0 -72 23.5t-27 61.5q0 64 71 90q33 13 111 27v14q0 51 -59 51q-57 0 -64 -48zM308 504v27q-78 -17 -105 -32.5t-27 -43.5q0 -22 15 -35t40 -13q77 0 77 97z
M115 320h262v-39h-262v39z" />
    <glyph glyph-name="guillemotleft" unicode="&#xab;" horiz-adv-x="381" 
d="M314 0h-52l-90 233l90 241h52l-77 -241zM184 0h-51l-90 233l90 241h51l-76 -241z" />
    <glyph glyph-name="logicalnot" unicode="&#xac;" 
d="M396 0v201h-363v65h433v-266h-70z" />
    <glyph glyph-name="uni00AD" unicode="&#xad;" horiz-adv-x="274" 
d="M0 279h274v-55h-274v55z" />
    <glyph glyph-name="registered" unicode="&#xae;" horiz-adv-x="789" 
d="M276 532h78q79 0 117 -13q32 -11 51 -38.5t19 -63.5q0 -79 -84 -108l111 -177h-65l-106 168h-67v-168h-54v400zM330 345h26q58 0 83 8q45 14 45 65q0 44 -37 60q-26 9 -92 9h-25v-142zM399 680q140 0 240.5 -101.5t100.5 -243.5q0 -143 -101 -244t-244 -101
q-142 0 -243.5 101t-101.5 243q0 145 101.5 245.5t247.5 100.5zM399 640q-128 0 -216 -89t-88 -218q0 -126 88 -215.5t212 -89.5t212 89.5t88 216.5q0 125 -87.5 215.5t-208.5 90.5z" />
    <glyph glyph-name="macron" unicode="&#xaf;" 
d="M114 644h273v-53h-273v53z" />
    <glyph glyph-name="degree" unicode="&#xb0;" 
d="M249 679q59 0 100.5 -40.5t41.5 -97.5q0 -58 -41 -98.5t-100 -40.5t-100.5 41t-41.5 100q0 56 41.5 96t99.5 40zM249 633q-38 0 -66 -27t-28 -64q0 -40 27.5 -67t67.5 -27q39 0 66.5 27.5t27.5 65.5t-27.5 65t-67.5 27z" />
    <glyph glyph-name="plusminus" unicode="&#xb1;" horiz-adv-x="533" 
d="M294 367h186v-52h-186v-187h-55v187h-186v52h186v193h55v-193zM53 83h427v-54h-427v54z" />
    <glyph glyph-name="twosuperior" unicode="&#xb2;" horiz-adv-x="351" 
d="M108 699h-49q2 124 124 124q52 0 83.5 -26.5t31.5 -70.5q0 -35 -29 -76q-9 -14 -94 -118l-41 -50l-9 -10h179v-46h-247v39l12 15l39 47l44 54q67 84 79.5 103.5t12.5 41.5q0 23 -17.5 37.5t-46.5 14.5q-68 0 -72 -79z" />
    <glyph glyph-name="threesuperior" unicode="&#xb3;" horiz-adv-x="351" 
d="M103 713h-47q2 54 33 82.5t87 28.5q52 0 84.5 -27.5t32.5 -71.5q0 -57 -56 -84q69 -27 69 -98q0 -53 -37 -86t-96 -33q-64 0 -98 31t-33 89h48q2 -75 81 -75q38 0 60 19.5t22 53.5q0 72 -93 72q-11 0 -20 -1v46l20 -1q37 0 58 17t21 47q0 26 -17.5 41.5t-47.5 15.5
q-32 0 -49.5 -16t-21.5 -50z" />
    <glyph glyph-name="acute" unicode="&#xb4;" 
d="M210 547l104 137h100l-146 -137h-58z" />
    <glyph glyph-name="mu" unicode="&#xb5;" 
d="M48 -167v647h70v-273q0 -54 8.5 -82t30.5 -49q37 -35 90 -35q62 0 99 48q36 47 36 128v263h70v-480h-70v87q-45 -100 -137 -100q-81 0 -127 74v-228h-70z" />
    <glyph glyph-name="paragraph" unicode="&#xb6;" horiz-adv-x="579" 
d="M219 -98v413q-52 0 -83 11q-54 18 -84.5 61t-30.5 101q0 104 84 152q48 27 149 27h255v-57h-60v-708h-63v708h-104v-708h-63z" />
    <glyph glyph-name="periodcentered" unicode="&#xb7;" horiz-adv-x="255" 
d="M129 308q23 0 40 -17t17 -41q0 -23 -17 -40t-41 -17t-41 17t-17 40q0 25 17 41.5t42 16.5z" />
    <glyph glyph-name="cedilla" unicode="&#xb8;" 
d="M228 0h48l-27 -56q86 -11 86 -75q0 -37 -26.5 -60t-68.5 -23q-34 0 -75 17v38q2 -1 5 -1.5t5 -1.5t3 -1q25 -7 41 -7q25 0 39 12.5t14 33.5q0 46 -81 46z" />
    <glyph glyph-name="onesuperior" unicode="&#xb9;" horiz-adv-x="351" 
d="M80 725v35q40 1 60 14.5t27 45.5h38v-394h-52v299h-73z" />
    <glyph glyph-name="ordmasculine" unicode="&#xba;" 
d="M249 675q58 0 95.5 -43t37.5 -111q0 -69 -37 -112t-97 -43q-57 0 -94 44t-37 111t37 110.5t95 43.5zM249 633q-37 0 -59.5 -31t-22.5 -82q0 -50 22.5 -81t58.5 -31q38 0 61 30.5t23 82.5q0 50 -23 81t-60 31zM119 320h262v-39h-262v39z" />
    <glyph glyph-name="guillemotright" unicode="&#xbb;" horiz-adv-x="381" 
d="M68 474h51l90 -233l-90 -241h-51l77 241zM197 474h52l90 -233l-90 -241h-52l77 241z" />
    <glyph glyph-name="onequarter" unicode="&#xbc;" horiz-adv-x="825" 
d="M80 559v35q41 1 60.5 14.5t26.5 44.5h38v-393h-52v299h-73zM572 650h61l-380 -650h-61zM723 137h71v-44h-70v-97h-53v97h-167v38l167 262h52v-256zM673 137l1 185l-116 -185h115z" />
    <glyph glyph-name="onehalf" unicode="&#xbd;" horiz-adv-x="825" 
d="M80 559v35q41 1 60.5 14.5t26.5 44.5h38v-393h-52v299h-73zM572 650h61l-380 -650h-61zM583 272h-49q3 124 123 124q52 0 84 -26.5t32 -70.5q0 -35 -29 -76q-9 -13 -94 -117l-41 -50l-9 -10h179v-46h-247v39l12 15l39 47l44 54q67 83 79.5 102.5t12.5 41.5
q0 23 -17.5 37.5t-46.5 14.5q-68 0 -72 -79z" />
    <glyph glyph-name="threequarters" unicode="&#xbe;" horiz-adv-x="825" 
d="M103 547h-47q2 54 33 82.5t87 28.5q53 0 85 -27.5t32 -71.5q0 -59 -56 -85q69 -27 69 -97q0 -54 -37 -87t-96 -33q-64 0 -98 31.5t-33 89.5h48q1 -76 81 -76q38 0 60 19.5t22 53.5q0 72 -93 72h-20v46q18 -2 20 -2q37 0 58 17t21 48q0 26 -17.5 41.5t-47.5 15.5
q-32 0 -49.5 -16t-21.5 -50zM573 650h61l-381 -650h-60zM724 137h71v-44h-70v-97h-53v97h-168v38l168 262h52v-256zM674 137l1 185l-116 -185h115z" />
    <glyph glyph-name="questiondown" unicode="&#xbf;" horiz-adv-x="412" 
d="M228 474q24 0 41 -17t17 -40q0 -25 -17 -41.5t-41 -16.5t-41 17t-17 41q0 23 17 40t41 17zM193 274h69v-53q0 -65 -10.5 -90t-58.5 -74q-38 -39 -51.5 -62.5t-13.5 -49.5q0 -35 22 -55t60 -20q88 0 97 95h62q-3 -78 -45.5 -119.5t-119.5 -41.5q-71 0 -112 38t-41 103
q0 39 17 69.5t68 80.5q39 39 48 61t9 79v39z" />
    <glyph glyph-name="Agrave" unicode="&#xc0;" horiz-adv-x="566" 
d="M251 671h65l230 -671h-78l-59 177h-251l-60 -177h-77zM388 242l-105 332l-105 -332h210zM337 731h-72l-167 137h101z" />
    <glyph glyph-name="Aacute" unicode="&#xc1;" horiz-adv-x="566" 
d="M250 671h65l230 -671h-78l-59 177h-251l-60 -177h-77zM387 242l-105 332l-105 -332h210zM228 731l139 137h100l-166 -137h-73z" />
    <glyph glyph-name="Acircumflex" unicode="&#xc2;" horiz-adv-x="566" 
d="M250 671h65l230 -671h-78l-59 177h-251l-60 -177h-77zM387 242l-105 332l-105 -332h210zM112 734l130 131h81l129 -131h-69l-101 88l-100 -88h-70z" />
    <glyph glyph-name="Atilde" unicode="&#xc3;" horiz-adv-x="566" 
d="M250 671h65l230 -671h-78l-59 177h-251l-60 -177h-77zM387 242l-105 332l-105 -332h210zM166 742l-43 16q13 50 35 73.5t57 23.5q30 0 75 -26q49 -28 68 -28q37 0 49 58l41 -16q-7 -47 -30.5 -73.5t-59.5 -26.5q-27 0 -84 31q-39 22 -59 22q-36 0 -49 -54z" />
    <glyph glyph-name="Adieresis" unicode="&#xc4;" horiz-adv-x="566" 
d="M250 671h65l230 -671h-78l-59 177h-251l-60 -177h-77zM387 242l-105 332l-105 -332h210zM194 856q23 0 39.5 -16.5t16.5 -39.5q0 -24 -16.5 -40.5t-39.5 -16.5q-24 0 -40.5 16.5t-16.5 39.5q0 24 16.5 40.5t40.5 16.5zM373 856q23 0 39.5 -16.5t16.5 -39.5
q0 -24 -17 -40.5t-40 -16.5t-40 16.5t-17 39.5q0 24 16.5 40.5t41.5 16.5z" />
    <glyph glyph-name="Aring" unicode="&#xc5;" horiz-adv-x="566" 
d="M250 671h65l230 -671h-78l-59 177h-251l-60 -177h-77zM387 242l-105 332l-105 -332h210zM284 900q37 0 64 -27t27 -65t-27 -65t-65 -27t-65.5 27t-27.5 65t27 65t67 27zM283 857q-21 0 -35.5 -14.5t-14.5 -34.5t14.5 -34.5t35.5 -14.5q20 0 34.5 14.5t14.5 34.5
t-14.5 34.5t-34.5 14.5z" />
    <glyph glyph-name="AE" unicode="&#xc6;" horiz-adv-x="852" 
d="M403 667h404v-65h-288v-224h264v-65h-264v-248h290v-65h-367v177h-238l-100 -177h-83zM442 242v359l-201 -359h201z" />
    <glyph glyph-name="Ccedilla" unicode="&#xc7;" horiz-adv-x="601" 
d="M335 -12l-22 -54q95 -11 95 -85q0 -40 -29 -65.5t-76 -25.5q-32 0 -80 18v42q38 -13 56 -13q27 0 43 14t16 37q0 49 -73 49h-15l35 87q-112 20 -173 108.5t-61 232.5q0 157 74.5 251.5t199.5 94.5q94 0 151.5 -51t70.5 -146h-70q-28 131 -152 131q-90 0 -142 -75.5
t-52 -205.5q0 -128 52.5 -203t141.5 -75q70 0 112 44.5t51 127.5h70q-7 -111 -66 -173.5t-157 -64.5z" />
    <glyph glyph-name="Egrave" unicode="&#xc8;" horiz-adv-x="502" 
d="M156 378h270v-65h-270v-248h298v-65h-373v667h366v-65h-291v-224zM333 731h-72l-166 137h100z" />
    <glyph glyph-name="Eacute" unicode="&#xc9;" horiz-adv-x="502" 
d="M161 378h270v-65h-270v-248h298v-65h-373v667h366v-65h-291v-224zM200 731l138 137h100l-166 -137h-72z" />
    <glyph glyph-name="Ecircumflex" unicode="&#xca;" horiz-adv-x="502" 
d="M161 378h270v-65h-270v-248h298v-65h-373v667h366v-65h-291v-224zM102 734l130 131h80l130 -131h-69l-101 88l-100 -88h-70z" />
    <glyph glyph-name="Edieresis" unicode="&#xcb;" horiz-adv-x="502" 
d="M161 378h270v-65h-270v-248h298v-65h-373v667h366v-65h-291v-224zM183 856q23 0 39.5 -16.5t16.5 -39.5q0 -24 -16.5 -40.5t-39.5 -16.5q-24 0 -40.5 16.5t-16.5 39.5q0 24 16.5 40.5t40.5 16.5zM362 856q23 0 39.5 -16.5t16.5 -39.5q0 -24 -16.5 -40.5t-39.5 -16.5
q-24 0 -40.5 16.5t-16.5 39.5q0 24 16.5 40.5t40.5 16.5z" />
    <glyph glyph-name="Igrave" unicode="&#xcc;" horiz-adv-x="246" 
d="M162 0h-77v667h77v-667zM175 731h-66l-139 137h94z" />
    <glyph glyph-name="Iacute" unicode="&#xcd;" horiz-adv-x="246" 
d="M162 0h-77v667h77v-667zM71 731l112 137h93l-139 -137h-66z" />
    <glyph glyph-name="Icircumflex" unicode="&#xce;" horiz-adv-x="246" 
d="M162 0h-77v667h77v-667zM-23 734l106 131h81l106 -131h-66l-80 88l-81 -88h-66z" />
    <glyph glyph-name="Idieresis" unicode="&#xcf;" horiz-adv-x="246" 
d="M161 0h-77v667h77v-667zM52 854q22 0 38 -16.5t16 -38.5q0 -23 -16 -39t-39 -16t-39 16t-16 39t16 39t40 16zM195 854q22 0 38 -16.5t16 -38.5q0 -23 -16.5 -39t-38.5 -16t-38.5 16t-16.5 39t16.5 39t39.5 16z" />
    <glyph glyph-name="Eth" unicode="&#xd0;" horiz-adv-x="626" 
d="M85 667h105q97 0 145 -8t88 -30q70 -38 110.5 -117.5t40.5 -177.5q0 -102 -41.5 -181t-114.5 -117q-42 -22 -88 -29t-148 -7h-97v317h-58v63h58v287zM160 65h48q79 0 113 6.5t69 27.5q50 31 77.5 92t27.5 143q0 86 -30.5 149t-85.5 92q-33 17 -67 22t-122 5h-30v-222h158
v-63h-158v-252z" />
    <glyph glyph-name="Ntilde" unicode="&#xd1;" horiz-adv-x="643" 
d="M86 667h81l320 -555v555h70v-667h-82l-318 554v-554h-71v667zM209 742l-43 16q23 97 91 97q31 0 75 -26q49 -28 69 -28q37 0 49 58l41 -16q-8 -47 -31.5 -73.5t-59.5 -26.5q-27 0 -83 31q-39 22 -60 22q-35 0 -48 -54z" />
    <glyph glyph-name="Ograve" unicode="&#xd2;" horiz-adv-x="646" 
d="M394 731h-73l-166 137h100zM323 679q120 0 195.5 -96t75.5 -248q0 -155 -75.5 -250.5t-199.5 -95.5q-118 0 -193 96.5t-75 248.5q0 153 75.5 249t196.5 96zM323 613q-88 0 -140 -75.5t-52 -203.5q0 -126 52 -202.5t137 -76.5q90 0 142 75.5t52 204.5q0 127 -52 202.5
t-139 75.5z" />
    <glyph glyph-name="Oacute" unicode="&#xd3;" horiz-adv-x="646" 
d="M247 731l138 137h100l-166 -137h-72zM323 679q120 0 195.5 -96t75.5 -248q0 -155 -75.5 -250.5t-199.5 -95.5q-118 0 -193 96.5t-75 248.5q0 153 75.5 249t196.5 96zM323 613q-88 0 -140 -75.5t-52 -203.5q0 -126 52 -202.5t137 -76.5q90 0 142 75.5t52 204.5
q0 127 -52 202.5t-139 75.5z" />
    <glyph glyph-name="Ocircumflex" unicode="&#xd4;" horiz-adv-x="646" 
d="M153 734l130 131h80l130 -131h-69l-101 88l-101 -88h-69zM323 679q120 0 195.5 -96t75.5 -248q0 -155 -75.5 -250.5t-199.5 -95.5q-118 0 -193 96.5t-75 248.5q0 153 75.5 249t196.5 96zM323 613q-88 0 -140 -75.5t-52 -203.5q0 -126 52 -202.5t137 -76.5q90 0 142 75.5
t52 204.5q0 127 -52 202.5t-139 75.5z" />
    <glyph glyph-name="Otilde" unicode="&#xd5;" horiz-adv-x="646" 
d="M206 742l-43 16q11 50 34.5 73.5t62.5 23.5q31 0 70 -25q45 -29 66 -29q39 0 51 58l41 -16q-8 -48 -31.5 -74t-60.5 -26q-34 0 -72 23q-39 22 -47.5 26t-19.5 4q-43 0 -51 -54zM323 679q120 0 195.5 -96t75.5 -248q0 -155 -75.5 -250.5t-199.5 -95.5q-118 0 -193 96.5
t-75 248.5q0 153 75.5 249t196.5 96zM323 613q-88 0 -140 -75.5t-52 -203.5q0 -126 52 -202.5t137 -76.5q90 0 142 75.5t52 204.5q0 127 -52 202.5t-139 75.5z" />
    <glyph glyph-name="Odieresis" unicode="&#xd6;" horiz-adv-x="646" 
d="M235 856q23 0 39.5 -16.5t16.5 -39.5q0 -24 -16.5 -40.5t-40.5 -16.5q-23 0 -40 16.5t-17 39.5q0 24 16.5 40.5t41.5 16.5zM413 856q23 0 39.5 -16.5t16.5 -39.5q0 -24 -17 -40.5t-40 -16.5t-40 16.5t-17 39.5q0 24 16.5 40.5t41.5 16.5zM323 679q120 0 195.5 -96
t75.5 -248q0 -155 -75.5 -250.5t-199.5 -95.5q-118 0 -193 96.5t-75 248.5q0 153 75.5 249t196.5 96zM323 613q-88 0 -140 -75.5t-52 -203.5q0 -126 52 -202.5t137 -76.5q90 0 142 75.5t52 204.5q0 127 -52 202.5t-139 75.5z" />
    <glyph glyph-name="multiply" unicode="&#xd7;" horiz-adv-x="533" 
d="M304 336l143 -144l-38 -38l-143 143l-143 -143l-38 37l144 144l-143 143l38 38l143 -143l143 143l37 -38z" />
    <glyph glyph-name="Oslash" unicode="&#xd8;" horiz-adv-x="646" 
d="M489 615l39 52h62l-65 -91q69 -100 69 -248q0 -151 -76 -245t-197 -94q-48 0 -84 14t-83 51l-38 -54h-61l64 92q-38 65 -53 118t-15 124q0 178 98 273q74 72 176 72q46 0 81 -13.5t83 -50.5zM168 156l278 401q-48 57 -126 57q-81 0 -129 -66q-60 -85 -60 -212
q0 -100 37 -180zM476 511l-278 -400q31 -31 58 -43.5t63 -12.5q88 0 141.5 76t53.5 201q0 109 -38 179z" />
    <glyph glyph-name="Ugrave" unicode="&#xd9;" horiz-adv-x="625" 
d="M383 731h-72l-166 137h100zM77 667h75v-393q0 -73 4 -102t17 -52q18 -30 55.5 -47.5t84.5 -17.5q52 0 90.5 20.5t54.5 57.5q15 34 15 141v393h75v-394q0 -79 -2.5 -106t-13.5 -54q-24 -59 -82 -91.5t-137 -32.5q-80 0 -138 32.5t-82 91.5q-11 27 -13.5 54t-2.5 106v394z
" />
    <glyph glyph-name="Uacute" unicode="&#xda;" horiz-adv-x="625" 
d="M240 731l138 137h100l-166 -137h-72zM77 667h75v-393q0 -73 4 -102t17 -52q18 -30 55.5 -47.5t84.5 -17.5q52 0 90.5 20.5t54.5 57.5q15 34 15 141v393h75v-394q0 -79 -2.5 -106t-13.5 -54q-24 -59 -82 -91.5t-137 -32.5q-80 0 -138 32.5t-82 91.5q-11 27 -13.5 54
t-2.5 106v394z" />
    <glyph glyph-name="Ucircumflex" unicode="&#xdb;" horiz-adv-x="625" 
d="M143 734l129 131h81l130 -131h-69l-101 88l-101 -88h-69zM77 667h75v-393q0 -73 4 -102t17 -52q18 -30 55.5 -47.5t84.5 -17.5q52 0 90.5 20.5t54.5 57.5q15 34 15 141v393h75v-394q0 -79 -2.5 -106t-13.5 -54q-24 -59 -82 -91.5t-137 -32.5q-80 0 -138 32.5t-82 91.5
q-11 27 -13.5 54t-2.5 106v394z" />
    <glyph glyph-name="Udieresis" unicode="&#xdc;" horiz-adv-x="625" 
d="M224 856q23 0 39.5 -16.5t16.5 -39.5q0 -24 -16.5 -40.5t-39.5 -16.5q-24 0 -40.5 16.5t-16.5 39.5q0 24 16.5 40.5t40.5 16.5zM402 856q23 0 39.5 -16.5t16.5 -39.5q0 -24 -16.5 -40.5t-39.5 -16.5q-24 0 -40.5 16.5t-16.5 39.5q0 24 16.5 40.5t40.5 16.5zM77 667h75
v-393q0 -73 4 -102t17 -52q18 -30 55.5 -47.5t84.5 -17.5q52 0 90.5 20.5t54.5 57.5q15 34 15 141v393h75v-394q0 -79 -2.5 -106t-13.5 -54q-24 -59 -82 -91.5t-137 -32.5q-80 0 -138 32.5t-82 91.5q-11 27 -13.5 54t-2.5 106v394z" />
    <glyph glyph-name="Yacute" unicode="&#xdd;" horiz-adv-x="512" 
d="M12 667h86l159 -312l158 312h86l-208 -387l1 -280h-75l1 280zM187 731l138 137h100l-166 -137h-72z" />
    <glyph glyph-name="Thorn" unicode="&#xde;" horiz-adv-x="526" 
d="M86 667h75v-78h35q131 0 184 -18q55 -18 86.5 -67t31.5 -115q0 -61 -27.5 -107t-76.5 -66q-54 -22 -184 -22h-49v-194h-75v667zM161 259h47q84 0 124 9q42 10 64.5 41.5t22.5 79.5q0 92 -68 119q-39 16 -151 16h-39v-265z" />
    <glyph glyph-name="germandbls" unicode="&#xdf;" horiz-adv-x="506" 
d="M68 0v425q0 81 4.5 113.5t18.5 58.5q20 37 60 57t92 20q76 0 124 -44t48 -114q0 -105 -113 -139q158 -30 158 -188q0 -85 -48.5 -140.5t-122.5 -55.5q-34 0 -74 17v64q35 -18 70 -18q46 0 74.5 37t28.5 96q0 76 -49.5 116t-143.5 41v60q8 -1 20 -1q61 0 95 28t34 78
q0 47 -27.5 75t-74.5 28q-71 0 -91 -54q-8 -21 -10.5 -44t-2.5 -87v-429h-70z" />
    <glyph glyph-name="agrave" unicode="&#xe0;" horiz-adv-x="476" 
d="M132 350h-69q8 67 53 102t124 35q58 0 98.5 -20.5t53.5 -57.5q11 -29 11 -106v-178q-1 -86 13 -125h-67q-7 22 -11 64q-42 -76 -139 -76q-70 0 -111.5 37.5t-41.5 99.5q0 101 110 142q59 22 178 42v20q0 53 -22 75.5t-75 22.5q-90 0 -105 -77zM334 210v47
q-119 -21 -167.5 -49.5t-48.5 -77.5q0 -37 25.5 -60t66.5 -23q71 0 105 56q19 34 19 107zM301 547h-58l-146 137h101z" />
    <glyph glyph-name="aacute" unicode="&#xe1;" horiz-adv-x="476" 
d="M132 350h-69q8 67 53 102t124 35q58 0 98.5 -20.5t53.5 -57.5q11 -29 11 -106v-178q-1 -86 13 -125h-67q-7 22 -11 64q-42 -76 -139 -76q-70 0 -111.5 37.5t-41.5 99.5q0 101 110 142q59 22 178 42v20q0 53 -22 75.5t-75 22.5q-90 0 -105 -77zM334 210v47
q-119 -21 -167.5 -49.5t-48.5 -77.5q0 -37 25.5 -60t66.5 -23q71 0 105 56q19 34 19 107zM181 547l103 137h101l-146 -137h-58z" />
    <glyph glyph-name="acircumflex" unicode="&#xe2;" horiz-adv-x="476" 
d="M132 350h-69q8 67 53 102t124 35q58 0 98.5 -20.5t53.5 -57.5q11 -29 11 -106v-178q-1 -86 13 -125h-67q-7 22 -11 64q-42 -76 -139 -76q-70 0 -111.5 37.5t-41.5 99.5q0 101 110 142q59 22 178 42v20q0 53 -22 75.5t-75 22.5q-90 0 -105 -77zM334 210v47
q-119 -21 -167.5 -49.5t-48.5 -77.5q0 -37 25.5 -60t66.5 -23q71 0 105 56q19 34 19 107zM87 550l113 140h81l113 -140h-68l-86 94l-85 -94h-68z" />
    <glyph glyph-name="atilde" unicode="&#xe3;" horiz-adv-x="476" 
d="M132 350h-69q8 67 53 102t124 35q58 0 98.5 -20.5t53.5 -57.5q11 -29 11 -106v-178q-1 -86 13 -125h-67q-7 22 -11 64q-42 -76 -139 -76q-70 0 -111.5 37.5t-41.5 99.5q0 101 110 142q59 22 178 42v20q0 53 -22 75.5t-75 22.5q-90 0 -105 -77zM334 210v47
q-119 -21 -167.5 -49.5t-48.5 -77.5q0 -37 25.5 -60t66.5 -23q71 0 105 56q19 34 19 107zM131 559l-40 10q21 104 85 104q29 0 67 -26q43 -28 61 -28q33 0 44 58l41 -10q-6 -49 -28 -78t-54 -29q-30 0 -73 28q-42 26 -59 26q-31 0 -44 -55z" />
    <glyph glyph-name="adieresis" unicode="&#xe4;" horiz-adv-x="476" 
d="M132 350h-69q8 67 53 102t124 35q58 0 98.5 -20.5t53.5 -57.5q11 -29 11 -106v-178q-1 -86 13 -125h-67q-7 22 -11 64q-42 -76 -139 -76q-70 0 -111.5 37.5t-41.5 99.5q0 101 110 142q59 22 178 42v20q0 53 -22 75.5t-75 22.5q-90 0 -105 -77zM334 210v47
q-119 -21 -167.5 -49.5t-48.5 -77.5q0 -37 25.5 -60t66.5 -23q71 0 105 56q19 34 19 107zM157 672q22 0 37 -15.5t15 -36.5q0 -22 -15 -37.5t-37 -15.5t-37.5 15.5t-15.5 36.5q0 23 15 38t38 15zM327 672q22 0 37 -15.5t15 -36.5q0 -22 -15 -37.5t-37 -15.5t-37.5 15.5
t-15.5 36.5q0 23 15 38t38 15z" />
    <glyph glyph-name="aring" unicode="&#xe5;" horiz-adv-x="476" 
d="M132 350h-69q8 67 53 102t124 35q58 0 98.5 -20.5t53.5 -57.5q11 -29 11 -106v-178q-1 -86 13 -125h-67q-7 22 -11 64q-42 -76 -139 -76q-70 0 -111.5 37.5t-41.5 99.5q0 101 110 142q59 22 178 42v20q0 53 -22 75.5t-75 22.5q-90 0 -105 -77zM334 210v47
q-119 -21 -167.5 -49.5t-48.5 -77.5q0 -37 25.5 -60t66.5 -23q71 0 105 56q19 34 19 107zM244 718q37 0 64 -27t27 -65q0 -39 -27 -66t-65 -27t-65.5 27t-27.5 65q0 39 27 66t67 27zM243 675q-21 0 -35.5 -14.5t-14.5 -35.5q0 -20 14.5 -34.5t35.5 -14.5q20 0 34.5 14.5
t14.5 35.5q0 20 -14.5 34.5t-34.5 14.5z" />
    <glyph glyph-name="ae" unicode="&#xe6;" horiz-adv-x="771" 
d="M726 227h-325q1 -86 37.5 -132.5t103.5 -46.5q76 0 111 72l65 -8q-16 -57 -63 -90.5t-112 -33.5q-59 0 -105 27t-71 76q-54 -103 -166 -103q-68 0 -111 36t-43 94q0 78 73.5 121t208.5 43v30q0 60 -15 84q-22 31 -76 31q-87 0 -110 -83h-66q9 68 56 105.5t122 37.5
q115 0 146 -82q55 82 148 82q88 0 140 -66.5t52 -178.5v-15zM404 282h244q-4 70 -34 108t-82 38q-51 0 -84.5 -38.5t-43.5 -107.5zM329 227h-13h-9q-88 -1 -138 -29t-50 -77q0 -33 24.5 -53.5t64.5 -20.5q69 0 102 56q19 31 19 92v32z" />
    <glyph glyph-name="ccedilla" unicode="&#xe7;" horiz-adv-x="465" 
d="M249 -13l-21 -43q86 -11 86 -75q0 -37 -26.5 -60t-68.5 -23q-34 0 -75 17v38q2 -1 5 -1.5t5 -1.5t3 -1q25 -7 41 -7q24 0 38.5 12.5t14.5 33.5q0 46 -81 46l33 70q-56 15 -89 48q-69 69 -69 196q0 115 54.5 183t146.5 68q75 0 118.5 -43t51.5 -124h-70q-9 58 -32.5 82.5
t-69.5 24.5q-59 0 -93 -50.5t-34 -139.5t34 -139t95 -50q47 0 72.5 28t31.5 87h70q-5 -83 -50 -129t-121 -47z" />
    <glyph glyph-name="egrave" unicode="&#xe8;" horiz-adv-x="486" 
d="M310 547h-59l-145 137h100zM440 225h-323q2 -86 37 -131.5t100 -45.5q39 0 64.5 16.5t45.5 55.5l65 -8q-44 -124 -176 -124q-95 0 -151.5 66t-56.5 178q0 116 55.5 185.5t148.5 69.5q88 0 140 -66t52 -176q0 -11 -1 -20zM119 280h249q-6 72 -37.5 110t-84.5 38
q-106 0 -127 -148z" />
    <glyph glyph-name="eacute" unicode="&#xe9;" horiz-adv-x="486" 
d="M190 547l104 137h100l-146 -137h-58zM440 225h-323q2 -86 37 -131.5t100 -45.5q39 0 64.5 16.5t45.5 55.5l65 -8q-44 -124 -176 -124q-95 0 -151.5 66t-56.5 178q0 116 55.5 185.5t148.5 69.5q88 0 140 -66t52 -176q0 -11 -1 -20zM119 280h249q-6 72 -37.5 110t-84.5 38
q-106 0 -127 -148z" />
    <glyph glyph-name="ecircumflex" unicode="&#xea;" horiz-adv-x="486" 
d="M95 550l113 140h81l113 -140h-68l-85 94l-86 -94h-68zM440 225h-323q2 -86 37 -131.5t100 -45.5q39 0 64.5 16.5t45.5 55.5l65 -8q-44 -124 -176 -124q-95 0 -151.5 66t-56.5 178q0 116 55.5 185.5t148.5 69.5q88 0 140 -66t52 -176q0 -11 -1 -20zM119 280h249
q-6 72 -37.5 110t-84.5 38q-106 0 -127 -148z" />
    <glyph glyph-name="edieresis" unicode="&#xeb;" horiz-adv-x="486" 
d="M440 225h-323q2 -86 37 -131.5t100 -45.5q39 0 64.5 16.5t45.5 55.5l65 -8q-44 -124 -176 -124q-95 0 -151.5 66t-56.5 178q0 116 55.5 185.5t148.5 69.5q88 0 140 -66t52 -176q0 -11 -1 -20zM119 280h249q-6 72 -37.5 110t-84.5 38q-106 0 -127 -148zM165 672
q22 0 37 -15.5t15 -36.5q0 -22 -15 -37.5t-37 -15.5t-37.5 15.5t-15.5 36.5q0 23 15 38t38 15zM335 672q22 0 37 -15.5t15 -36.5q0 -22 -15 -37.5t-37 -15.5t-37.5 15.5t-15.5 36.5q0 23 15 38t38 15z" />
    <glyph glyph-name="igrave" unicode="&#xec;" horiz-adv-x="221" 
d="M73 474h74v-474h-74v474zM158 547h-55l-119 137h94z" />
    <glyph glyph-name="iacute" unicode="&#xed;" horiz-adv-x="221" 
d="M73 474h74v-474h-74v474zM63 547l80 137h94l-119 -137h-55z" />
    <glyph glyph-name="icircumflex" unicode="&#xee;" horiz-adv-x="221" 
d="M73 474h74v-474h-74v474zM-20 550l90 140h80l90 -140h-64l-66 94l-65 -94h-65z" />
    <glyph glyph-name="idieresis" unicode="&#xef;" horiz-adv-x="220" 
d="M73 474h74v-474h-74v474zM41 672q22 0 37 -15.5t15 -36.5q0 -22 -15 -37.5t-37 -15.5t-37.5 15.5t-15.5 36.5q0 23 15 38t38 15zM180 672q22 0 37 -15.5t15 -36.5q0 -22 -15 -37.5t-37 -15.5t-37.5 15.5t-15.5 36.5q0 23 15.5 38t37.5 15z" />
    <glyph glyph-name="eth" unicode="&#xf0;" horiz-adv-x="504" 
d="M260 622l69 38l30 -36l-70 -40q46 -51 88 -110q46 -64 64 -114.5t18 -115.5q0 -116 -56 -186t-149 -70t-151 69t-58 180q0 110 55 179t143 69q29 0 56 -17l-62 86l-68 -39l-30 38l73 42l-43 55l37 30zM257 427q-65 0 -102.5 -51t-37.5 -139q0 -85 37.5 -137t98.5 -52
q59 0 96.5 52.5t37.5 136.5q0 85 -36 137.5t-94 52.5z" />
    <glyph glyph-name="ntilde" unicode="&#xf1;" horiz-adv-x="504" 
d="M134 559l-41 10q21 104 85 104q29 0 67 -26q43 -28 62 -28q32 0 44 58l41 -10q-7 -49 -29 -78t-54 -29q-27 0 -73 28q-42 26 -59 26q-31 0 -43 -55zM61 474h67q10 -29 9 -69q49 82 144 82q48 0 84 -20.5t52 -56.5q10 -24 12.5 -46.5t2.5 -91.5v-272h-70v268q0 83 -13 110
q-22 47 -82 47q-67 0 -102 -56q-23 -36 -23 -104v-265h-70v313q0 82 -1.5 104.5t-9.5 56.5z" />
    <glyph glyph-name="ograve" unicode="&#xf2;" horiz-adv-x="504" 
d="M312 547h-59l-145 137h100zM252 487q92 0 149.5 -69.5t57.5 -180.5q0 -110 -58 -179.5t-149 -69.5q-92 0 -149.5 70t-57.5 183q0 107 58 176.5t149 69.5zM252 427q-60 0 -97.5 -52t-37.5 -135q0 -87 37 -139.5t98 -52.5t98 52t37 138q0 85 -37 137t-98 52z" />
    <glyph glyph-name="oacute" unicode="&#xf3;" horiz-adv-x="504" 
d="M195 547l103 137h100l-145 -137h-58zM252 487q92 0 149.5 -69.5t57.5 -180.5q0 -110 -58 -179.5t-149 -69.5q-92 0 -149.5 70t-57.5 183q0 107 58 176.5t149 69.5zM252 427q-60 0 -97.5 -52t-37.5 -135q0 -87 37 -139.5t98 -52.5t98 52t37 138q0 85 -37 137t-98 52z" />
    <glyph glyph-name="ocircumflex" unicode="&#xf4;" horiz-adv-x="504" 
d="M99 550l113 140h80l113 -140h-67l-86 94l-85 -94h-68zM252 487q92 0 149.5 -69.5t57.5 -180.5q0 -110 -58 -179.5t-149 -69.5q-92 0 -149.5 70t-57.5 183q0 107 58 176.5t149 69.5zM252 427q-60 0 -97.5 -52t-37.5 -135q0 -87 37 -139.5t98 -52.5t98 52t37 138
q0 85 -37 137t-98 52z" />
    <glyph glyph-name="otilde" unicode="&#xf5;" horiz-adv-x="504" 
d="M151 559l-41 10q21 104 85 104q29 0 67 -26q43 -28 62 -28q32 0 44 58l41 -10q-7 -50 -29 -78.5t-54 -28.5q-27 0 -73 28q-42 26 -58 26q-32 0 -44 -55zM252 487q92 0 149.5 -69.5t57.5 -180.5q0 -110 -58 -179.5t-149 -69.5q-92 0 -149.5 70t-57.5 183q0 107 58 176.5
t149 69.5zM252 427q-60 0 -97.5 -52t-37.5 -135q0 -87 37 -139.5t98 -52.5t98 52t37 138q0 85 -37 137t-98 52z" />
    <glyph glyph-name="odieresis" unicode="&#xf6;" horiz-adv-x="504" 
d="M252 487q92 0 149.5 -69.5t57.5 -180.5q0 -110 -58 -179.5t-149 -69.5q-92 0 -149.5 70t-57.5 183q0 107 58 176.5t149 69.5zM252 427q-60 0 -97.5 -52t-37.5 -135q0 -87 37 -139.5t98 -52.5t98 52t37 138q0 85 -37 137t-98 52zM167 672q22 0 37 -15.5t15 -36.5
q0 -22 -15 -37.5t-37 -15.5t-37.5 15.5t-15.5 36.5q0 23 15 38t38 15zM337 672q22 0 37 -15.5t15 -36.5q0 -22 -15 -37.5t-37 -15.5t-37.5 15.5t-15.5 36.5q0 23 15 38t38 15z" />
    <glyph glyph-name="divide" unicode="&#xf7;" horiz-adv-x="533" 
d="M267 242q19 0 33.5 -14t14.5 -34t-14.5 -34t-34.5 -14t-34 14t-14 34t14.5 34t34.5 14zM267 520q19 0 33.5 -14t14.5 -34t-14.5 -34t-34.5 -14t-34 14t-14 34t14.5 34t34.5 14zM53 362h427v-54h-427v54z" />
    <glyph glyph-name="oslash" unicode="&#xf8;" horiz-adv-x="504" 
d="M27 0l60 75q-42 67 -42 158q0 112 58.5 183.5t149.5 71.5q40 0 69 -11.5t65 -41.5l34 39h56l-60 -74l5 -9q37 -70 37 -150q0 -112 -58.5 -182.5t-150.5 -70.5q-37 0 -73 13.5t-58 36.5l-34 -38h-58zM136 131l208 254q-42 43 -90 43q-61 0 -99 -54.5t-38 -142.5
q0 -53 19 -100zM369 342l-207 -254q13 -17 38 -28.5t50 -11.5q61 0 99 54t38 141q0 55 -18 99z" />
    <glyph glyph-name="ugrave" unicode="&#xf9;" horiz-adv-x="497" 
d="M309 547h-59l-145 137h100zM71 474h70v-290q0 -69 16 -95q25 -38 81 -38q63 0 96 53q20 34 20 101v269h70v-330q0 -79 1.5 -98.5t9.5 -45.5h-69q-8 26 -10 63q-21 -40 -50.5 -57.5t-75.5 -17.5q-96 0 -138 72q-21 35 -21 124v290z" />
    <glyph glyph-name="uacute" unicode="&#xfa;" horiz-adv-x="497" 
d="M184 547l103 137h101l-146 -137h-58zM71 474h70v-290q0 -69 16 -95q25 -38 81 -38q63 0 96 53q20 34 20 101v269h70v-330q0 -79 1.5 -98.5t9.5 -45.5h-69q-8 26 -10 63q-21 -40 -50.5 -57.5t-75.5 -17.5q-96 0 -138 72q-21 35 -21 124v290z" />
    <glyph glyph-name="ucircumflex" unicode="&#xfb;" horiz-adv-x="497" 
d="M95 550l113 140h80l114 -140h-68l-86 94l-85 -94h-68zM71 474h70v-290q0 -69 16 -95q25 -38 81 -38q63 0 96 53q20 34 20 101v269h70v-330q0 -79 1.5 -98.5t9.5 -45.5h-69q-8 26 -10 63q-21 -40 -50.5 -57.5t-75.5 -17.5q-96 0 -138 72q-21 35 -21 124v290z" />
    <glyph glyph-name="udieresis" unicode="&#xfc;" horiz-adv-x="497" 
d="M71 474h70v-290q0 -69 16 -95q25 -38 81 -38q63 0 96 53q20 34 20 101v269h70v-330q0 -79 1.5 -98.5t9.5 -45.5h-69q-8 26 -10 63q-21 -40 -50.5 -57.5t-75.5 -17.5q-96 0 -138 72q-21 35 -21 124v290zM163 672q22 0 37 -15.5t15 -36.5q0 -22 -15 -37.5t-37 -15.5
t-37.5 15.5t-15.5 36.5q0 23 15 38t38 15zM334 672q22 0 37 -15.5t15 -36.5q0 -22 -15 -37.5t-37 -15.5t-37.5 15.5t-15.5 36.5q0 23 15.5 38t37.5 15z" />
    <glyph glyph-name="yacute" unicode="&#xfd;" horiz-adv-x="438" 
d="M16 474h75l128 -395l134 395h73l-156 -441q-33 -94 -47 -123t-37 -54q-51 -56 -138 -56q-12 0 -21 1v62q68 -1 97 24t57 108zM160 547l103 137h101l-146 -137h-58z" />
    <glyph glyph-name="thorn" unicode="&#xfe;" horiz-adv-x="508" 
d="M74 -197v867h70v-266q26 44 56.5 63.5t75.5 19.5q85 0 136.5 -69t51.5 -182q0 -112 -50.5 -180t-132.5 -68q-86 0 -137 78v-263h-70zM270 426q-58 0 -92.5 -52t-34.5 -138q0 -83 35.5 -135t92.5 -52t89 49.5t32 136.5t-33 139t-89 52z" />
    <glyph glyph-name="ydieresis" unicode="&#xff;" horiz-adv-x="438" 
d="M16 474h75l128 -395l134 395h73l-156 -441q-33 -94 -47 -123t-37 -54q-51 -56 -138 -56q-12 0 -21 1v62q68 -1 97 24t57 108zM136 672q21 0 36.5 -15.5t15.5 -36.5q0 -22 -15.5 -37.5t-37.5 -15.5t-37 15.5t-15 36.5q0 23 15.5 38t37.5 15zM306 672q21 0 36.5 -15.5
t15.5 -36.5q0 -22 -15.5 -37.5t-37.5 -15.5t-37 15.5t-15 36.5q0 23 15.5 38t37.5 15z" />
    <glyph glyph-name="Amacron" unicode="&#x100;" horiz-adv-x="566" 
d="M250 671h65l230 -671h-78l-59 177h-251l-60 -177h-77zM387 242l-105 332l-105 -332h210zM138 826h289v-52h-289v52z" />
    <glyph glyph-name="amacron" unicode="&#x101;" horiz-adv-x="476" 
d="M104 644h273v-53h-273v53zM132 350h-69q8 67 53 102t124 35q58 0 98.5 -20.5t53.5 -57.5q11 -29 11 -106v-178q-1 -86 13 -125h-67q-7 22 -11 64q-42 -76 -139 -76q-70 0 -111.5 37.5t-41.5 99.5q0 101 110 142q59 22 178 42v20q0 53 -22 75.5t-75 22.5q-90 0 -105 -77z
M334 210v47q-119 -21 -167.5 -49.5t-48.5 -77.5q0 -37 25.5 -60t66.5 -23q71 0 105 56q19 34 19 107z" />
    <glyph glyph-name="Abreve" unicode="&#x102;" horiz-adv-x="566" 
d="M250 671h65l230 -671h-78l-59 177h-251l-60 -177h-77zM387 242l-105 332l-105 -332h210zM146 866h40q11 -36 37 -56.5t60 -20.5t59.5 20.5t35.5 56.5h40q-7 -61 -43 -97t-91 -36q-56 0 -93.5 36.5t-44.5 96.5z" />
    <glyph glyph-name="abreve" unicode="&#x103;" horiz-adv-x="476" 
d="M132 350h-69q8 67 53 102t124 35q58 0 98.5 -20.5t53.5 -57.5q11 -29 11 -106v-178q-1 -86 13 -125h-67q-7 22 -11 64q-42 -76 -139 -76q-70 0 -111.5 37.5t-41.5 99.5q0 101 110 142q59 22 178 42v20q0 53 -22 75.5t-75 22.5q-90 0 -105 -77zM334 210v47
q-119 -21 -167.5 -49.5t-48.5 -77.5q0 -37 25.5 -60t66.5 -23q71 0 105 56q19 34 19 107zM116 682h41q22 -78 83 -78q60 0 81 78h41q-6 -63 -38.5 -99t-82.5 -36t-84.5 37t-40.5 98z" />
    <glyph glyph-name="Aogonek" unicode="&#x104;" horiz-adv-x="566" 
d="M315 671l230 -671q-37 -21 -58.5 -46t-21.5 -47q0 -23 16 -36t44 -13q18 0 42 8v-46q-35 -13 -63 -13q-46 0 -76 25.5t-30 64.5q0 58 78 103h-8l-61 177h-250l-60 -177h-77l229 671h66zM387 242l-105 330l-105 -330h210z" />
    <glyph glyph-name="aogonek" unicode="&#x105;" horiz-adv-x="476" 
d="M403 303v-178q0 -83 13 -125q-79 -49 -79 -88q0 -20 15 -32.5t40 -12.5q21 0 41 8v-45q-33 -10 -58 -10q-44 0 -72 23t-28 60q0 58 80 97h-8q-7 32 -9 64q-40 -76 -139 -76q-69 0 -111 37.5t-42 98.5q0 100 110 142q62 24 178 43v25q0 49 -23 71t-74 22q-90 0 -105 -77
h-69q8 67 53 102t124 35q58 0 98.5 -20.5t53.5 -57.5q11 -29 11 -106zM334 210v47q-119 -21 -167.5 -49.5t-48.5 -77.5q0 -38 25 -60.5t66 -22.5q71 0 106 56q19 34 19 107z" />
    <glyph glyph-name="Cacute" unicode="&#x106;" horiz-adv-x="601" 
d="M251 731l138 137h100l-166 -137h-72zM547 482h-70q-28 131 -153 131q-89 0 -141 -75.5t-52 -204.5t52 -204t141 -75q95 0 137 79q22 44 26 93h71q-6 -110 -68 -174t-163 -64q-126 0 -201 93.5t-75 250.5q0 158 74.5 252.5t199.5 94.5q94 0 151.5 -51t70.5 -146z" />
    <glyph glyph-name="cacute" unicode="&#x107;" horiz-adv-x="465" 
d="M188 547l103 137h100l-145 -137h-58zM416 320h-69q-10 58 -33.5 82.5t-69.5 24.5q-59 0 -93 -50.5t-34 -139.5t34 -139t95 -50q47 0 72.5 28t31.5 87h70q-7 -85 -51.5 -130t-122.5 -45q-91 0 -146 67.5t-55 180.5q0 115 54.5 183t146.5 68q75 0 118.5 -43t51.5 -124z" />
    <glyph glyph-name="Ccircumflex" unicode="&#x108;" horiz-adv-x="601" 
d="M547 482h-70q-28 131 -153 131q-89 0 -141 -75.5t-52 -204.5t52 -204t141 -75q95 0 137 79q22 44 26 93h71q-6 -110 -68 -174t-163 -64q-126 0 -201 93.5t-75 250.5q0 158 74.5 252.5t199.5 94.5q94 0 151.5 -51t70.5 -146zM155 734l130 131h80l130 -131h-69l-101 88
l-100 -88h-70z" />
    <glyph glyph-name="ccircumflex" unicode="&#x109;" horiz-adv-x="465" 
d="M416 320h-69q-10 58 -33.5 82.5t-69.5 24.5q-59 0 -93 -50.5t-34 -139.5t34 -139t95 -50q47 0 72.5 28t31.5 87h70q-7 -85 -51.5 -130t-122.5 -45q-91 0 -146 67.5t-55 180.5q0 115 54.5 183t146.5 68q75 0 118.5 -43t51.5 -124zM88 550l113 140h81l113 -140h-68l-85 94
l-86 -94h-68z" />
    <glyph glyph-name="Cdotaccent" unicode="&#x10a;" horiz-adv-x="601" 
d="M323 862q25 0 43.5 -18t18.5 -44t-18 -44.5t-44 -18.5t-44.5 18t-18.5 44t18.5 44.5t44.5 18.5zM547 482h-70q-28 131 -153 131q-89 0 -141 -75.5t-52 -204.5t52 -204t141 -75q95 0 137 79q22 44 26 93h71q-6 -110 -68 -174t-163 -64q-126 0 -201 93.5t-75 250.5
q0 158 74.5 252.5t199.5 94.5q94 0 151.5 -51t70.5 -146z" />
    <glyph glyph-name="cdotaccent" unicode="&#x10b;" horiz-adv-x="465" 
d="M247 672q22 0 37 -15.5t15 -36.5q0 -22 -15 -37.5t-37 -15.5t-37.5 15.5t-15.5 36.5q0 23 15 38t38 15zM416 320h-69q-10 58 -33.5 82.5t-69.5 24.5q-59 0 -93 -50.5t-34 -139.5t34 -139t95 -50q47 0 72.5 28t31.5 87h70q-7 -85 -51.5 -130t-122.5 -45q-91 0 -146 67.5
t-55 180.5q0 115 54.5 183t146.5 68q75 0 118.5 -43t51.5 -124z" />
    <glyph glyph-name="Ccaron" unicode="&#x10c;" horiz-adv-x="601" 
d="M495 865l-130 -131h-81l-130 131h70l100 -88l101 88h70zM547 482h-70q-28 131 -153 131q-89 0 -141 -75.5t-52 -204.5t52 -204t141 -75q95 0 137 79q22 44 26 93h71q-6 -110 -68 -174t-163 -64q-126 0 -201 93.5t-75 250.5q0 158 74.5 252.5t199.5 94.5q94 0 151.5 -51
t70.5 -146z" />
    <glyph glyph-name="ccaron" unicode="&#x10d;" horiz-adv-x="465" 
d="M400 690l-114 -140h-80l-113 140h68l85 -94l85 94h69zM416 320h-69q-10 58 -33.5 82.5t-69.5 24.5q-59 0 -93 -50.5t-34 -139.5t34 -139t95 -50q47 0 72.5 28t31.5 87h70q-7 -85 -51.5 -130t-122.5 -45q-91 0 -146 67.5t-55 180.5q0 115 54.5 183t146.5 68
q75 0 118.5 -43t51.5 -124z" />
    <glyph glyph-name="Dcaron" unicode="&#x10e;" horiz-adv-x="627" 
d="M86 667h105q97 0 145.5 -8t88.5 -30q70 -38 110.5 -117.5t40.5 -177.5q0 -102 -41.5 -181t-115.5 -117q-41 -22 -87.5 -29t-148.5 -7h-97v667zM161 65h49q79 0 113 6.5t69 27.5q50 31 77.5 92t27.5 143q0 86 -30.5 149t-86.5 92q-32 17 -66 22t-123 5h-30v-537zM456 865
l-129 -131h-81l-130 131h70l100 -88l101 88h69z" />
    <glyph glyph-name="dcaron" unicode="&#x10f;" horiz-adv-x="569" 
d="M434 670v-530q0 -108 9 -140h-69q-7 27 -7 51q0 9 1 17q-25 -43 -56.5 -61.5t-77.5 -18.5q-86 0 -138 67t-52 178q0 113 51.5 183.5t134.5 70.5q46 0 77.5 -19t56.5 -61v263h70zM242 426q-59 0 -92.5 -51t-33.5 -139q0 -86 33.5 -136.5t90.5 -50.5q58 0 91.5 51t33.5 137
t-33.5 137.5t-89.5 51.5zM527 485h-45q23 22 40 50t19 48h-6q-20 0 -33.5 13.5t-13.5 33.5q0 21 15 35.5t37 14.5q25 0 40.5 -18t15.5 -48q0 -59 -69 -129z" />
    <glyph glyph-name="Dcroat" unicode="&#x110;" horiz-adv-x="626" 
d="M85 667h105q97 0 145 -8t88 -30q70 -38 110.5 -117.5t40.5 -177.5q0 -102 -41.5 -181t-114.5 -117q-42 -22 -88 -29t-148 -7h-97v317h-58v63h58v287zM160 65h48q79 0 113 6.5t69 27.5q50 31 77.5 92t27.5 143q0 86 -30.5 149t-85.5 92q-33 17 -67 22t-122 5h-30v-222h158
v-63h-158v-252z" />
    <glyph glyph-name="dcroat" unicode="&#x111;" horiz-adv-x="508" 
d="M434 670v-65h55v-57h-55v-408q0 -108 10 -140h-70q-7 27 -7 51q0 9 1 17q-26 -43 -56.5 -61.5t-76.5 -18.5q-86 0 -138 67t-52 178q0 114 51.5 184t134.5 70q87 0 133 -80v141h-133v57h133v65h70zM243 426q-59 0 -92.5 -51t-33.5 -139q0 -86 33.5 -136.5t90.5 -50.5
t90.5 51t33.5 137t-33 137.5t-89 51.5z" />
    <glyph glyph-name="Emacron" unicode="&#x112;" horiz-adv-x="502" 
d="M161 378h270v-65h-270v-248h298v-65h-373v667h366v-65h-291v-224zM128 826h288v-52h-288v52z" />
    <glyph glyph-name="emacron" unicode="&#x113;" horiz-adv-x="486" 
d="M113 644h273v-53h-273v53zM440 225h-323q2 -86 37 -131.5t100 -45.5q39 0 64.5 16.5t45.5 55.5l65 -8q-44 -124 -176 -124q-95 0 -151.5 66t-56.5 178q0 116 55.5 185.5t148.5 69.5q88 0 140 -66t52 -176q0 -11 -1 -20zM119 280h249q-6 72 -37.5 110t-84.5 38
q-106 0 -127 -148z" />
    <glyph glyph-name="Ebreve" unicode="&#x114;" horiz-adv-x="502" 
d="M161 378h270v-65h-270v-248h298v-65h-373v667h366v-65h-291v-224zM136 866h40q25 -77 97 -77q71 0 95 77h40q-7 -61 -43.5 -97t-91.5 -36t-92.5 36.5t-44.5 96.5z" />
    <glyph glyph-name="ebreve" unicode="&#x115;" horiz-adv-x="486" 
d="M440 225h-323q2 -86 37 -131.5t100 -45.5q39 0 64.5 16.5t45.5 55.5l65 -8q-44 -124 -176 -124q-95 0 -151.5 66t-56.5 178q0 116 55.5 185.5t148.5 69.5q88 0 140 -66t52 -176q0 -11 -1 -20zM119 280h249q-6 72 -37.5 110t-84.5 38q-106 0 -127 -148zM126 682h42
q21 -78 82 -78t81 78h42q-6 -62 -38.5 -98.5t-82.5 -36.5q-51 0 -85 36.5t-41 98.5z" />
    <glyph glyph-name="Edotaccent" unicode="&#x116;" horiz-adv-x="502" 
d="M161 378h270v-65h-270v-248h298v-65h-373v667h366v-65h-291v-224zM273 862q25 0 43.5 -18t18.5 -44t-18 -44.5t-44 -18.5t-44.5 18t-18.5 44t18.5 44.5t44.5 18.5z" />
    <glyph glyph-name="edotaccent" unicode="&#x117;" horiz-adv-x="486" 
d="M250 672q22 0 37 -15.5t15 -36.5q0 -22 -15 -37.5t-37 -15.5t-37.5 15.5t-15.5 36.5q0 23 15.5 38t37.5 15zM440 225h-323q2 -86 37 -131.5t100 -45.5q39 0 64.5 16.5t45.5 55.5l65 -8q-44 -124 -176 -124q-95 0 -151.5 66t-56.5 178q0 116 55.5 185.5t148.5 69.5
q88 0 140 -66t52 -176q0 -11 -1 -20zM119 280h249q-6 72 -37.5 110t-84.5 38q-106 0 -127 -148z" />
    <glyph glyph-name="Eogonek" unicode="&#x118;" horiz-adv-x="502" 
d="M459 65v-65q-38 -18 -61.5 -44t-23.5 -49t16 -36t44 -13q18 0 41 8v-46q-33 -13 -63 -13q-46 0 -75.5 25.5t-29.5 64.5q0 32 18.5 56t59.5 47h-299v667h366v-65h-291v-224h270v-65h-270v-248h298z" />
    <glyph glyph-name="eogonek" unicode="&#x119;" horiz-adv-x="486" 
d="M401 -125v-44q-28 -11 -60 -11q-45 0 -73.5 23t-28.5 59q0 28 17 49t59 45q-30 -8 -59 -8q-98 0 -154.5 65.5t-56.5 178.5q0 116 55.5 185.5t147.5 69.5q56 0 99.5 -28t66.5 -80q26 -57 26 -154h-323q2 -86 37 -131.5t100 -45.5q39 0 64.5 16.5t45.5 55.5l65 -8
q-10 -30 -23 -49t-57 -68q-43 -47 -43 -82q0 -21 14.5 -33.5t39.5 -12.5q19 0 41 8zM119 280h248q-6 72 -37 110t-84 38q-106 0 -127 -148z" />
    <glyph glyph-name="Ecaron" unicode="&#x11a;" horiz-adv-x="502" 
d="M161 378h270v-65h-270v-248h298v-65h-373v667h366v-65h-291v-224zM442 865l-129 -131h-81l-130 131h69l101 -88l101 88h69z" />
    <glyph glyph-name="ecaron" unicode="&#x11b;" horiz-adv-x="486" 
d="M402 690l-113 -140h-80l-114 140h68l86 -94l85 94h68zM440 225h-323q2 -86 37 -131.5t100 -45.5q39 0 64.5 16.5t45.5 55.5l65 -8q-44 -124 -176 -124q-95 0 -151.5 66t-56.5 178q0 116 55.5 185.5t148.5 69.5q88 0 140 -66t52 -176q0 -11 -1 -20zM119 280h249
q-6 72 -37.5 110t-84.5 38q-106 0 -127 -148z" />
    <glyph glyph-name="Gcircumflex" unicode="&#x11c;" horiz-adv-x="622" 
d="M159 734l130 131h81l129 -131h-69l-101 88l-100 -88h-70zM356 331h203v-274q-97 -69 -220 -69q-134 0 -211 93.5t-77 255.5q0 155 75.5 248.5t200.5 93.5q112 0 175 -74q37 -44 48 -122h-70q-16 67 -53 98.5t-101 31.5q-91 0 -143 -74.5t-52 -202.5q0 -150 72 -228
q49 -54 137 -54q78 0 151 44v169l-135 -1v65z" />
    <glyph glyph-name="gcircumflex" unicode="&#x11d;" horiz-adv-x="483" 
d="M96 550l114 140h80l113 -140h-68l-85 94l-86 -94h-68zM461 474v-53l-97 2q41 -38 41 -109t-46 -107q-30 -23 -109 -40q-55 -12 -72 -20q-28 -14 -28 -32q0 -15 16.5 -20.5t78.5 -11.5q70 -7 98 -12.5t51 -18.5q63 -33 63 -109q0 -68 -57.5 -107.5t-157.5 -39.5
q-97 0 -155 37.5t-58 99.5q0 43 23.5 70.5t76.5 46.5q-51 19 -51 55q0 24 19.5 41.5t65.5 34.5q-95 38 -95 137q0 73 47.5 117.5t126.5 44.5q36 0 74 -11zM241 424q-47 0 -76.5 -29t-29.5 -75q0 -44 28 -71t74 -27t74 27t28 71q0 45 -27.5 74.5t-70.5 29.5zM238 19
q-69 0 -107 -21.5t-38 -60.5q0 -38 41 -60.5t109 -22.5q67 0 106.5 22.5t39.5 60.5q0 82 -151 82z" />
    <glyph glyph-name="Gbreve" unicode="&#x11e;" horiz-adv-x="622" 
d="M192 866h39q25 -77 97 -77q71 0 96 77h40q-7 -61 -43.5 -97t-91.5 -36q-56 0 -93.5 36.5t-43.5 96.5zM356 331h203v-274q-97 -69 -220 -69q-134 0 -211 93.5t-77 255.5q0 155 75.5 248.5t200.5 93.5q112 0 175 -74q37 -44 48 -122h-70q-16 67 -53 98.5t-101 31.5
q-91 0 -143 -74.5t-52 -202.5q0 -150 72 -228q49 -54 137 -54q78 0 151 44v169l-135 -1v65z" />
    <glyph glyph-name="gbreve" unicode="&#x11f;" horiz-adv-x="483" 
d="M125 682h41q22 -78 83 -78q60 0 81 78h41q-6 -63 -38.5 -99t-82.5 -36t-84.5 37t-40.5 98zM461 474v-53l-97 2q41 -38 41 -109t-46 -107q-30 -23 -109 -40q-55 -12 -72 -20q-28 -14 -28 -32q0 -15 16.5 -20.5t78.5 -11.5q70 -7 98 -12.5t51 -18.5q63 -33 63 -109
q0 -68 -57.5 -107.5t-157.5 -39.5q-97 0 -155 37.5t-58 99.5q0 43 23.5 70.5t76.5 46.5q-51 19 -51 55q0 24 19.5 41.5t65.5 34.5q-95 38 -95 137q0 73 47.5 117.5t126.5 44.5q36 0 74 -11zM241 424q-47 0 -76.5 -29t-29.5 -75q0 -44 28 -71t74 -27t74 27t28 71
q0 45 -27.5 74.5t-70.5 29.5zM238 19q-69 0 -107 -21.5t-38 -60.5q0 -38 41 -60.5t109 -22.5q67 0 106.5 22.5t39.5 60.5q0 82 -151 82z" />
    <glyph glyph-name="Gdotaccent" unicode="&#x120;" horiz-adv-x="622" 
d="M331 862q25 0 43.5 -18t18.5 -44t-18 -44.5t-44 -18.5t-44.5 18t-18.5 44t18.5 44.5t44.5 18.5zM356 331h203v-274q-97 -69 -220 -69q-134 0 -211 93.5t-77 255.5q0 155 75.5 248.5t200.5 93.5q112 0 175 -74q37 -44 48 -122h-70q-16 67 -53 98.5t-101 31.5
q-91 0 -143 -74.5t-52 -202.5q0 -150 72 -228q49 -54 137 -54q78 0 151 44v169l-135 -1v65z" />
    <glyph glyph-name="gdotaccent" unicode="&#x121;" horiz-adv-x="483" 
d="M461 474v-53l-97 2q41 -38 41 -109t-46 -107q-30 -23 -109 -40q-55 -12 -72 -20q-28 -14 -28 -32q0 -15 16.5 -20.5t78.5 -11.5q70 -7 98 -12.5t51 -18.5q63 -33 63 -109q0 -68 -57.5 -107.5t-157.5 -39.5q-97 0 -155 37.5t-58 99.5q0 43 23.5 70.5t76.5 46.5
q-51 19 -51 55q0 24 19.5 41.5t65.5 34.5q-95 38 -95 137q0 73 47.5 117.5t126.5 44.5q36 0 74 -11zM241 424q-47 0 -76.5 -29t-29.5 -75q0 -44 28 -71t74 -27t74 27t28 71q0 45 -27.5 74.5t-70.5 29.5zM238 19q-69 0 -107 -21.5t-38 -60.5q0 -38 41 -60.5t109 -22.5
q67 0 106.5 22.5t39.5 60.5q0 82 -151 82zM250 672q22 0 37 -15.5t15 -36.5q0 -22 -15 -37.5t-37 -15.5t-37.5 15.5t-15.5 36.5q0 23 15.5 38t37.5 15z" />
    <glyph glyph-name="Gcommaaccent" unicode="&#x122;" horiz-adv-x="622" 
d="M322 -251h-46q55 53 60 99q-54 2 -54 47q0 22 15.5 36.5t37.5 14.5q25 0 41 -18.5t16 -47.5q0 -58 -70 -131zM356 331h203v-274q-97 -69 -220 -69q-134 0 -211 93.5t-77 255.5q0 155 75.5 248.5t200.5 93.5q112 0 175 -74q37 -44 48 -122h-70q-16 67 -53 98.5t-101 31.5
q-91 0 -143 -74.5t-52 -202.5q0 -150 72 -228q49 -54 137 -54q78 0 151 44v169l-135 -1v65z" />
    <glyph glyph-name="gcommaaccent" unicode="&#x123;" horiz-adv-x="483" 
d="M461 474v-53l-97 2q41 -38 41 -109t-46 -107q-30 -23 -109 -40q-55 -12 -72 -20q-28 -14 -28 -32q0 -15 16.5 -20.5t78.5 -11.5q70 -7 98 -12.5t51 -18.5q63 -33 63 -109q0 -68 -57.5 -107.5t-157.5 -39.5q-97 0 -155 37.5t-58 99.5q0 43 23.5 70.5t76.5 46.5
q-51 19 -51 55q0 24 19.5 41.5t65.5 34.5q-95 38 -95 137q0 73 47.5 117.5t126.5 44.5q36 0 74 -11zM241 424q-47 0 -76.5 -29t-29.5 -75q0 -44 28 -71t74 -27t74 27t28 71q0 45 -27.5 74.5t-70.5 29.5zM238 19q-69 0 -107 -21.5t-38 -60.5q0 -38 41 -60.5t109 -22.5
q67 0 106.5 22.5t39.5 60.5q0 82 -151 82zM263 743h46q-23 -22 -40 -49.5t-19 -48.5q2 1 6 1q20 0 33.5 -14t13.5 -33q0 -22 -15 -36.5t-37 -14.5q-25 0 -40.5 18t-15.5 48q0 57 68 129z" />
    <glyph glyph-name="Hcircumflex" unicode="&#x124;" horiz-adv-x="634" 
d="M161 380h313v287h75v-667h-75v318h-313v-318h-75v667h75v-287zM147 734l130 131h81l129 -131h-69l-101 88l-100 -88h-70z" />
    <glyph glyph-name="hcircumflex" unicode="&#x125;" horiz-adv-x="502" 
d="M73 670h70v-252q51 69 136 69q89 0 129 -62q14 -22 18.5 -51.5t4.5 -101.5v-272h-70v268q0 81 -13 110q-24 47 -84 47q-66 0 -99 -57q-22 -37 -22 -107v-261h-70v670zM30 734l130 131h80l130 -131h-69l-101 88l-101 -88h-69z" />
    <glyph glyph-name="Hbar" unicode="&#x126;" horiz-adv-x="634" 
d="M474 554v113h75v-113h58v-62h-58v-492h-75v318h-313v-318h-75v492h-58v62h58v113h75v-113h313zM474 492h-313v-112h313v112z" />
    <glyph glyph-name="hbar" unicode="&#x127;" horiz-adv-x="502" 
d="M73 670h70v-65h139v-57h-139v-130q50 69 136 69q89 0 129 -62q14 -22 18.5 -51.5t4.5 -101.5v-272h-70v268q0 83 -13 110q-24 47 -83 47q-67 0 -100 -57q-22 -37 -22 -107v-261h-70v548h-54v57h54v65z" />
    <glyph glyph-name="Itilde" unicode="&#x128;" horiz-adv-x="246" 
d="M161 0h-77v667h77v-667zM3 742l-43 16q13 50 35 73.5t57 23.5q30 0 75 -26q49 -28 68 -28q37 0 49 58l41 -16q-7 -47 -30.5 -73.5t-59.5 -26.5q-27 0 -84 31q-38 22 -59 22q-36 0 -49 -54z" />
    <glyph glyph-name="itilde" unicode="&#x129;" horiz-adv-x="221" 
d="M73 474h74v-474h-74v474zM2 559l-41 10q21 104 85 104q29 0 67 -26q43 -28 62 -28q32 0 44 58l41 -10q-7 -49 -29 -78t-54 -29q-27 0 -73 28q-42 26 -59 26q-31 0 -43 -55z" />
    <glyph glyph-name="Imacron" unicode="&#x12a;" horiz-adv-x="246" 
d="M162 0h-77v667h77v-667zM6 826h235v-52h-235v52z" />
    <glyph glyph-name="imacron" unicode="&#x12b;" horiz-adv-x="221" 
d="M73 474h74v-474h-74v474zM7 644h206v-53h-206v53z" />
    <glyph glyph-name="Ibreve" unicode="&#x12c;" horiz-adv-x="246" 
d="M162 0h-77v667h77v-667zM-13 866h40q24 -77 97 -77q71 0 95 77h40q-7 -61 -43.5 -97t-91.5 -36t-92.5 36.5t-44.5 96.5z" />
    <glyph glyph-name="ibreve" unicode="&#x12d;" horiz-adv-x="220" 
d="M74 474h74v-474h-74v474zM-5 678h41q14 -74 75 -74q56 0 74 74h41q-3 -60 -34 -95.5t-81 -35.5t-81.5 35.5t-34.5 95.5z" />
    <glyph glyph-name="Iogonek" unicode="&#x12e;" horiz-adv-x="246" 
d="M117 0h-32v667h77v-667q-43 -51 -43 -90q0 -23 13.5 -37.5t35.5 -14.5q9 0 26 8v-46q-17 -13 -46 -13q-40 0 -68 26.5t-28 63.5q0 51 65 103z" />
    <glyph glyph-name="iogonek" unicode="&#x12f;" horiz-adv-x="221" 
d="M147 474v-474q-44 -56 -44 -94q0 -39 40 -39q14 0 29 7v-43q-21 -12 -47 -12q-38 0 -61 23t-23 60q0 29 14.5 50t51.5 48h-34v474h74zM111 676q22 0 36 -14.5t14 -37.5q0 -22 -14.5 -36t-36.5 -14t-36.5 14t-14.5 36t14.5 37t37.5 15z" />
    <glyph glyph-name="Idotaccent" unicode="&#x130;" horiz-adv-x="246" 
d="M161 0h-77v667h77v-667zM123 862q25 0 43.5 -18t18.5 -44t-18 -44.5t-44 -18.5t-44.5 18t-18.5 44t18.5 44.5t44.5 18.5z" />
    <glyph glyph-name="dotlessi" unicode="&#x131;" horiz-adv-x="221" 
d="M73 474h74v-474h-74v474z" />
    <glyph glyph-name="IJ" unicode="&#x132;" horiz-adv-x="529" 
d="M162 0h-77v667h77v-667zM368 667h77v-532q0 -71 -3 -95.5t-13 -46.5q-38 -80 -165 -80h-24v65h11h6q82 1 102 50q9 21 9 107v532z" />
    <glyph glyph-name="ij" unicode="&#x133;" horiz-adv-x="469" 
d="M73 474h74v-474h-74v474zM111 676q22 0 36 -14.5t14 -37.5q0 -22 -14.5 -36t-36.5 -14t-36.5 14t-14.5 36t14.5 37t37.5 15zM322 474h74v-433q0 -80 -6.5 -113.5t-26.5 -58.5q-43 -56 -149 -56h-12h-12v62h9h7q75 3 96.5 33.5t19.5 132.5v433zM360 676q22 0 36 -14.5
t14 -37.5q0 -22 -14.5 -36t-36.5 -14t-36.5 14t-14.5 36t15 37t37 15z" />
    <glyph glyph-name="Jcircumflex" unicode="&#x134;" horiz-adv-x="288" 
d="M127 667h77v-532q0 -70 -3 -95t-13 -47q-38 -80 -166 -80h-24v65h11h6q81 2 102 47q10 22 10 110v532zM-6 734l130 131h80l130 -131h-69l-101 88l-101 -88h-69z" />
    <glyph glyph-name="jcircumflex" unicode="&#x135;" horiz-adv-x="251" 
d="M105 474h74v-433q0 -80 -6.5 -113.5t-26.5 -59.5q-43 -55 -149 -55h-24v62h9h8q75 3 96 33.5t19 132.5v433zM-14 550l113 140h81l113 -140h-68l-85 94l-86 -94h-68z" />
    <glyph glyph-name="Kcommaaccent" unicode="&#x136;" horiz-adv-x="558" 
d="M432 667h91l-272 -315l298 -352h-103l-284 350zM86 667h75v-667h-75v667zM288 -251h-46q24 22 41 50.5t19 48.5q-54 2 -54 47q0 22 15 36.5t38 14.5q25 0 40.5 -18.5t15.5 -47.5q0 -58 -69 -131z" />
    <glyph glyph-name="kcommaaccent" unicode="&#x137;" horiz-adv-x="482" 
d="M344 474h85l-198 -213l213 -261h-97l-203 258zM73 670h70v-670h-70v670zM225 -248h-45q54 52 59 98q-3 -1 -6 -1q-19 0 -33 13.5t-14 33.5q0 22 15 36.5t37 14.5q25 0 40.5 -18t15.5 -47q0 -58 -69 -130z" />
    <glyph glyph-name="kgreenlandic" unicode="&#x138;" horiz-adv-x="482" 
d="M344 474h85l-198 -213l213 -261h-97l-203 258zM73 474h70v-474h-70v474z" />
    <glyph glyph-name="Lacute" unicode="&#x139;" horiz-adv-x="475" 
d="M85 667h77v-602h286v-65h-363v667zM72 731l138 137h101l-167 -137h-72z" />
    <glyph glyph-name="lacute" unicode="&#x13a;" horiz-adv-x="221" 
d="M73 670h74v-670h-74v670zM63 731l112 137h93l-139 -137h-66z" />
    <glyph glyph-name="Lcommaaccent" unicode="&#x13b;" horiz-adv-x="475" 
d="M86 667h77v-602h285v-65h-362v667zM255 -251h-46q54 51 61 99q-54 2 -54 47q0 22 15 36.5t38 14.5q25 0 40.5 -18.5t15.5 -47.5q0 -58 -70 -131z" />
    <glyph glyph-name="lcommaaccent" unicode="&#x13c;" horiz-adv-x="220" 
d="M69 670h74v-670h-74v670zM89 -248h-45q52 51 59 98q-3 -1 -6 -1q-19 0 -33 13.5t-14 33.5q0 22 15 36.5t37 14.5q25 0 40.5 -18t15.5 -47q0 -60 -69 -130z" />
    <glyph glyph-name="Lcaron" unicode="&#x13d;" horiz-adv-x="475" 
d="M86 667h77v-602h285v-65h-362v667zM303 483h-46q55 53 60 99q-25 0 -39.5 12.5t-14.5 34.5t15 36.5t38 14.5q25 0 40.5 -18.5t15.5 -47.5q0 -56 -69 -131z" />
    <glyph glyph-name="lcaron" unicode="&#x13e;" horiz-adv-x="282" 
d="M73 670h74v-670h-74v670zM239 485h-45q23 22 40 50t19 48h-6q-20 0 -33.5 13.5t-13.5 33.5q0 21 15 35.5t37 14.5q25 0 40.5 -18t15.5 -48q0 -59 -69 -129z" />
    <glyph glyph-name="Ldot" unicode="&#x13f;" horiz-adv-x="475" 
d="M86 667h77v-602h285v-65h-362v667zM359 398q27 0 46 -19t19 -46q0 -26 -19 -45t-47 -19q-27 0 -46 19t-19 45q0 27 19 46t47 19z" />
    <glyph glyph-name="ldot" unicode="&#x140;" horiz-adv-x="334" 
d="M73 670h74v-670h-74v670zM276 407q23 0 40 -17t17 -41q0 -23 -17 -40t-41 -17t-41 17t-17 40q0 25 17 41.5t42 16.5z" />
    <glyph glyph-name="Lslash" unicode="&#x141;" horiz-adv-x="475" 
d="M86 339v328h77v-286l166 123v-68l-166 -124v-247h286v-65h-363v270l-69 -53v69z" />
    <glyph glyph-name="lslash" unicode="&#x142;" horiz-adv-x="221" 
d="M73 372v298h74v-261l72 54v-64l-72 -53v-346h-74v309l-72 -52v63z" />
    <glyph glyph-name="Nacute" unicode="&#x143;" horiz-adv-x="643" 
d="M86 667h81l320 -555v555h70v-667h-82l-318 554v-554h-71v667zM251 731l138 137h100l-166 -137h-72z" />
    <glyph glyph-name="nacute" unicode="&#x144;" horiz-adv-x="504" 
d="M185 547l103 137h101l-146 -137h-58zM61 474h67q10 -29 9 -69q49 82 144 82q48 0 84 -20.5t52 -56.5q10 -24 12.5 -46.5t2.5 -91.5v-272h-70v268q0 83 -13 110q-22 47 -82 47q-67 0 -102 -56q-23 -36 -23 -104v-265h-70v313q0 82 -1.5 104.5t-9.5 56.5z" />
    <glyph glyph-name="Ncommaaccent" unicode="&#x145;" horiz-adv-x="643" 
d="M86 667h81l320 -555v555h70v-667h-82l-318 554v-554h-71v667zM301 -251h-46q24 23 41.5 51t18.5 48q-53 2 -53 47q0 22 15 36.5t38 14.5q25 0 40.5 -18.5t15.5 -47.5q0 -58 -70 -131z" />
    <glyph glyph-name="ncommaaccent" unicode="&#x146;" horiz-adv-x="504" 
d="M235 -248h-45q54 52 59 98q-3 -1 -6 -1q-20 0 -33.5 13.5t-13.5 33.5q0 22 15 36.5t37 14.5q25 0 40.5 -18t15.5 -47q0 -60 -69 -130zM61 474h67q10 -29 9 -69q49 82 144 82q48 0 84 -20.5t52 -56.5q10 -24 12.5 -46.5t2.5 -91.5v-272h-70v268q0 83 -13 110
q-22 47 -82 47q-67 0 -102 -56q-23 -36 -23 -104v-265h-70v313q0 82 -1.5 104.5t-9.5 56.5z" />
    <glyph glyph-name="Ncaron" unicode="&#x147;" horiz-adv-x="643" 
d="M86 667h81l320 -555v555h70v-667h-82l-318 554v-554h-71v667zM493 865l-129 -131h-81l-130 131h69l101 -88l101 88h69z" />
    <glyph glyph-name="ncaron" unicode="&#x148;" horiz-adv-x="504" 
d="M61 474h67q10 -29 9 -69q49 82 144 82q48 0 84 -20.5t52 -56.5q10 -24 12.5 -46.5t2.5 -91.5v-272h-70v268q0 83 -13 110q-22 47 -82 47q-67 0 -102 -56q-23 -36 -23 -104v-265h-70v313q0 82 -1.5 104.5t-9.5 56.5zM396 690l-113 -140h-80l-113 140h67l86 -94l85 94h68z
" />
    <glyph glyph-name="napostrophe" unicode="&#x149;" horiz-adv-x="606" 
d="M96 453h-61q64 63 71 117q-27 0 -43 14t-16 39q0 23 17 39.5t41 16.5q28 0 45 -20.5t17 -53.5q0 -69 -71 -152zM163 474h67q10 -29 10 -69q48 82 144 82q49 0 84.5 -20.5t51.5 -56.5q10 -24 12.5 -46.5t2.5 -91.5v-272h-70v268q0 82 -12 110q-22 47 -83 47
q-68 0 -103 -56q-23 -36 -23 -104v-265h-70v313q0 86 -1.5 107t-9.5 54z" />
    <glyph glyph-name="Eng" unicode="&#x14a;" horiz-adv-x="601" 
d="M72 675h71q13 -31 13 -84q58 87 174 87q56 0 99.5 -22t65.5 -62q23 -45 23 -150v-409q0 -71 -3 -95.5t-13 -46.5q-38 -80 -166 -80h-24v64q6 1 12 1h5q85 1 106 50q9 21 9 107v402q0 85 -20 119q-31 57 -111 57q-84 0 -126 -64q-26 -40 -26 -127v-422h-74v487
q0 98 -2 123.5t-13 64.5z" />
    <glyph glyph-name="eng" unicode="&#x14b;" horiz-adv-x="505" 
d="M61 474h68q10 -26 10 -69q49 82 144 82q48 0 84 -20.5t52 -56.5q10 -24 12.5 -46.5t2.5 -91.5v-231q0 -78 -6.5 -112.5t-26.5 -60.5q-43 -55 -149 -55h-24v62h9h8q77 3 99 33.5t20 132.5v227q0 83 -13 110q-22 47 -82 47q-66 0 -103 -56q-22 -37 -22 -104v-265h-70v313
q0 82 -2 104.5t-11 56.5z" />
    <glyph glyph-name="Omacron" unicode="&#x14c;" horiz-adv-x="646" 
d="M323 679q121 0 196 -95.5t75 -249.5t-75 -249.5t-196 -95.5q-123 0 -197.5 96t-74.5 254q0 149 76 244.5t196 95.5zM323 613q-86 0 -139 -75.5t-53 -199.5q0 -130 52 -206.5t140 -76.5q86 0 138.5 76.5t52.5 202.5t-52.5 202.5t-138.5 76.5zM179 826h288v-52h-288v52z
" />
    <glyph glyph-name="omacron" unicode="&#x14d;" horiz-adv-x="504" 
d="M252 487q92 0 149.5 -69.5t57.5 -180.5q0 -110 -58 -179.5t-149 -69.5q-92 0 -149.5 70t-57.5 183q0 107 58 176.5t149 69.5zM252 427q-60 0 -97.5 -52t-37.5 -135q0 -87 37 -139.5t98 -52.5t98 52t37 138q0 85 -37 137t-98 52zM116 644h272v-53h-272v53z" />
    <glyph glyph-name="Obreve" unicode="&#x14e;" horiz-adv-x="646" 
d="M323 679q121 0 196 -95.5t75 -249.5t-75 -249.5t-196 -95.5q-123 0 -197.5 96t-74.5 254q0 149 76 244.5t196 95.5zM323 613q-86 0 -139 -75.5t-53 -199.5q0 -130 52 -206.5t140 -76.5q86 0 138.5 76.5t52.5 202.5t-52.5 202.5t-138.5 76.5zM187 866h40q24 -77 96 -77
q71 0 96 77h40q-8 -61 -44 -97t-91 -36t-92.5 36.5t-44.5 96.5z" />
    <glyph glyph-name="obreve" unicode="&#x14f;" horiz-adv-x="504" 
d="M252 487q92 0 149.5 -69.5t57.5 -180.5q0 -110 -58 -179.5t-149 -69.5q-92 0 -149.5 70t-57.5 183q0 107 58 176.5t149 69.5zM252 427q-60 0 -97.5 -52t-37.5 -135q0 -87 37 -139.5t98 -52.5t98 52t37 138q0 85 -37 137t-98 52zM129 682h41q10 -37 32 -57.5t51 -20.5
q60 0 81 78h41q-6 -62 -38.5 -98.5t-82.5 -36.5q-51 0 -85 36.5t-40 98.5z" />
    <glyph glyph-name="Ohungarumlaut" unicode="&#x150;" horiz-adv-x="646" 
d="M226 731l106 137h85l-131 -137h-60zM350 731l106 137h85l-131 -137h-60zM323 679q120 0 195.5 -96t75.5 -248q0 -155 -75.5 -250.5t-199.5 -95.5q-118 0 -193 96.5t-75 248.5q0 153 75.5 249t196.5 96zM323 613q-88 0 -140 -75.5t-52 -203.5q0 -126 52 -202.5t137 -76.5
q90 0 142 75.5t52 204.5q0 127 -52 202.5t-139 75.5z" />
    <glyph glyph-name="ohungarumlaut" unicode="&#x151;" horiz-adv-x="504" 
d="M166 546l89 137h84l-116 -137h-57zM287 546l90 137h83l-115 -137h-58zM252 487q92 0 149.5 -69.5t57.5 -180.5q0 -110 -58 -179.5t-149 -69.5q-92 0 -149.5 70t-57.5 183q0 107 58 176.5t149 69.5zM252 427q-60 0 -97.5 -52t-37.5 -135q0 -87 37 -139.5t98 -52.5t98 52
t37 138q0 85 -37 137t-98 52z" />
    <glyph glyph-name="OE" unicode="&#x152;" horiz-adv-x="930" 
d="M517 583v84h363v-65h-289v-224h267v-65h-267v-248h295v-65h-369v85q-42 -52 -85.5 -74t-105.5 -22q-125 0 -200 94t-75 250t76 251t200 95q61 0 106 -23t84 -73zM327 613q-91 0 -143.5 -75.5t-52.5 -204.5q0 -127 52.5 -202.5t140.5 -75.5q89 0 140.5 75t51.5 204
q0 127 -51.5 203t-137.5 76z" />
    <glyph glyph-name="oe" unicode="&#x153;" horiz-adv-x="824" 
d="M778 221h-324q3 -84 39 -128.5t100 -44.5q82 0 112 73l65 -9q-43 -124 -176 -124q-117 0 -176 104q-32 -55 -71 -79.5t-94 -24.5q-92 0 -150 69.5t-58 179.5q0 111 58 180.5t151 69.5q111 0 165 -107q59 107 168 107q104 0 157 -94q35 -63 35 -142q0 -17 -1 -30zM456 275
h247q-3 72 -34.5 112.5t-85.5 40.5q-52 0 -84.5 -39.5t-42.5 -113.5zM252 427q-61 0 -98 -52.5t-37 -138.5q0 -84 37 -136t97 -52q59 0 95 52t36 137q0 84 -36 137t-94 53z" />
    <glyph glyph-name="Racute" unicode="&#x154;" horiz-adv-x="561" 
d="M86 667h118q131 0 185 -21q50 -20 79 -64.5t29 -103.5q0 -131 -137 -181l175 -297h-90l-168 285h-116v-285h-75v667zM161 350h47q98 0 135 13q75 27 75 116q0 80 -63 107q-23 10 -50 13t-99 3h-45v-252zM196 731l138 137h100l-166 -137h-72z" />
    <glyph glyph-name="racute" unicode="&#x155;" horiz-adv-x="327" 
d="M130 547l103 137h100l-145 -137h-58zM66 474h67q9 -36 9 -73q0 -3 -2 -29q49 115 123 115q27 0 57 -15v-70q-42 19 -64 19q-27 0 -51 -19.5t-40 -53.5q-20 -47 -20 -136v-212h-71v311q-1 118 -8 163z" />
    <glyph glyph-name="Rcommaaccent" unicode="&#x156;" horiz-adv-x="561" 
d="M86 667h118q131 0 185 -21q50 -20 79 -64.5t29 -103.5q0 -131 -137 -181l175 -297h-90l-168 285h-116v-285h-75v667zM161 350h47q98 0 135 13q75 27 75 116q0 80 -63 107q-23 10 -50 13t-99 3h-45v-252zM280 -251h-46q55 53 60 99q-53 2 -53 47q0 22 15 36.5t38 14.5
q25 0 40.5 -18.5t15.5 -47.5q0 -58 -70 -131z" />
    <glyph glyph-name="rcommaaccent" unicode="&#x157;" horiz-adv-x="327" 
d="M66 474h67q9 -36 9 -73l-1 -29q48 115 123 115q27 0 57 -15v-70q-41 19 -64 19q-58 0 -91 -73q-21 -46 -21 -136v-212h-71v311q0 110 -8 163zM94 -248h-45q23 22 40 49.5t19 48.5q-3 -1 -6 -1q-20 0 -33.5 13.5t-13.5 33.5q0 22 15 36.5t37 14.5q25 0 40.5 -18t15.5 -48
q0 -59 -69 -129z" />
    <glyph glyph-name="Rcaron" unicode="&#x158;" horiz-adv-x="561" 
d="M86 667h118q131 0 185 -21q50 -20 79 -64.5t29 -103.5q0 -131 -137 -181l175 -297h-90l-168 285h-116v-285h-75v667zM161 350h47q98 0 135 13q75 27 75 116q0 80 -63 107q-23 10 -50 13t-99 3h-45v-252zM442 865l-130 -131h-80l-130 131h69l101 -88l101 88h69z" />
    <glyph glyph-name="rcaron" unicode="&#x159;" horiz-adv-x="327" 
d="M67 474h67q9 -36 9 -73l-1 -29q48 115 122 115q27 0 57 -15v-70q-41 19 -63 19q-58 0 -91 -73q-21 -46 -21 -136v-212h-71v311q0 110 -8 163zM341 690l-113 -140h-81l-113 140h68l85 -94l86 94h68z" />
    <glyph glyph-name="Sacute" unicode="&#x15a;" horiz-adv-x="547" 
d="M473 494h-73q-5 57 -39 88t-91 31q-53 0 -87.5 -29t-34.5 -73t40 -70q22 -15 119 -59q112 -49 145 -88q40 -48 40 -115q0 -85 -60 -137.5t-158 -52.5q-121 0 -180 77q-37 48 -43 137h73q5 -72 44 -110t109 -38q61 0 99.5 32.5t38.5 82.5q0 48 -40 82q-25 21 -104 56
q-100 45 -136 73q-62 48 -62 124t56.5 125t144.5 49q111 0 165 -76q30 -41 34 -109zM202 731l139 137h100l-166 -137h-73z" />
    <glyph glyph-name="sacute" unicode="&#x15b;" horiz-adv-x="438" 
d="M167 547l103 137h100l-145 -137h-58zM387 344h-68q-10 85 -97 85q-40 0 -65.5 -19.5t-25.5 -51.5q0 -29 21 -44.5t89 -35.5q100 -29 125 -58q29 -32 29 -84q0 -68 -46.5 -108t-125.5 -40q-86 0 -132.5 41t-46.5 118h68q9 -100 110 -100q46 0 73.5 22.5t27.5 60.5
q0 37 -30 56q-17 10 -106 38q-69 21 -98 50.5t-29 78.5q0 60 45 97t118 37q76 0 118 -37t46 -106z" />
    <glyph glyph-name="Scircumflex" unicode="&#x15c;" horiz-adv-x="547" 
d="M473 494h-73q-5 57 -39 88t-91 31q-53 0 -87.5 -29t-34.5 -73t40 -70q22 -15 119 -59q112 -49 145 -88q40 -48 40 -115q0 -85 -60 -137.5t-158 -52.5q-121 0 -180 77q-37 48 -43 137h73q5 -72 44 -110t109 -38q61 0 99.5 32.5t38.5 82.5q0 48 -40 82q-25 21 -104 56
q-100 45 -136 73q-62 48 -62 124t56.5 125t144.5 49q111 0 165 -76q30 -41 34 -109zM105 734l130 131h80l130 -131h-69l-101 88l-101 -88h-69z" />
    <glyph glyph-name="scircumflex" unicode="&#x15d;" horiz-adv-x="438" 
d="M75 550l113 140h81l113 -140h-68l-86 94l-85 -94h-68zM387 344h-68q-10 85 -97 85q-40 0 -65.5 -19.5t-25.5 -51.5q0 -29 21 -44.5t89 -35.5q100 -29 125 -58q29 -32 29 -84q0 -68 -46.5 -108t-125.5 -40q-86 0 -132.5 41t-46.5 118h68q9 -100 110 -100q46 0 73.5 22.5
t27.5 60.5q0 37 -30 56q-17 10 -106 38q-69 21 -98 50.5t-29 78.5q0 60 45 97t118 37q76 0 118 -37t46 -106z" />
    <glyph glyph-name="Scedilla" unicode="&#x15e;" horiz-adv-x="547" 
d="M284 -11l-22 -54q95 -12 95 -86q0 -40 -29 -65.5t-76 -25.5q-31 0 -79 18v42q38 -13 55 -13q26 0 42.5 14t16.5 37q0 34 -36 45q-15 4 -51 4l34 86q-86 11 -133.5 66t-49.5 146h73q11 -149 153 -149q60 0 99 32.5t39 82.5q0 49 -41 82q-24 22 -103 57q-104 46 -137 72
q-61 49 -61 125t56.5 125t144.5 49q111 0 165 -76q30 -41 34 -109h-73q-5 57 -39 88t-91 31q-53 0 -87.5 -29t-34.5 -73t40 -70q22 -16 118 -59q114 -50 146 -88q40 -48 40 -115q0 -84 -55 -134.5t-153 -55.5z" />
    <glyph glyph-name="scedilla" unicode="&#x15f;" horiz-adv-x="438" 
d="M233 -12l-21 -44q86 -11 86 -75q0 -37 -27 -60t-69 -23q-33 0 -74 17v38q2 -1 5 -1.5t5 -1.5t3 -1q23 -7 40 -7q25 0 39.5 12.5t14.5 33.5q0 25 -19 35.5t-62 10.5l32 68q-142 22 -142 157h68q9 -101 110 -101q46 0 73.5 23t27.5 61q0 36 -30 55q-20 12 -107 38
q-69 21 -97.5 50.5t-28.5 79.5q0 59 45 96.5t118 37.5q76 0 118 -37t46 -106h-68q-10 85 -97 85q-40 0 -65.5 -19.5t-25.5 -51.5q0 -29 21.5 -45t88.5 -35q99 -29 125 -58q29 -34 29 -84q0 -43 -20 -76.5t-55 -51.5q-32 -16 -87 -20z" />
    <glyph glyph-name="Scaron" unicode="&#x160;" horiz-adv-x="547" 
d="M473 494h-73q-5 57 -39 88t-91 31q-53 0 -87.5 -29t-34.5 -73t40 -70q22 -15 119 -59q112 -49 145 -88q40 -48 40 -115q0 -85 -60 -137.5t-158 -52.5q-121 0 -180 77q-37 48 -43 137h73q5 -72 44 -110t109 -38q61 0 99.5 32.5t38.5 82.5q0 48 -40 82q-25 21 -104 56
q-100 45 -136 73q-62 48 -62 124t56.5 125t144.5 49q111 0 165 -76q30 -41 34 -109zM445 865l-130 -131h-80l-130 131h69l101 -88l100 88h70z" />
    <glyph glyph-name="scaron" unicode="&#x161;" horiz-adv-x="438" 
d="M380 690l-113 -140h-80l-113 140h68l85 -94l85 94h68zM387 344h-68q-10 85 -97 85q-40 0 -65.5 -19.5t-25.5 -51.5q0 -29 21 -44.5t89 -35.5q100 -29 125 -58q29 -32 29 -84q0 -68 -46.5 -108t-125.5 -40q-86 0 -132.5 41t-46.5 118h68q9 -100 110 -100q46 0 73.5 22.5
t27.5 60.5q0 37 -30 56q-17 10 -106 38q-69 21 -98 50.5t-29 78.5q0 60 45 97t118 37q76 0 118 -37t46 -106z" />
    <glyph glyph-name="Tcommaaccent" unicode="&#x162;" horiz-adv-x="463" 
d="M21 667h422v-65h-174v-602h-75v602h-173v65zM215 -251h-46q55 53 60 99q-54 2 -54 47q0 22 15.5 36.5t37.5 14.5q25 0 41 -18t16 -47q0 -59 -70 -132z" />
    <glyph glyph-name="tcommaaccent" unicode="&#x163;" horiz-adv-x="314" 
d="M169 474h113l-1 -57h-113l-4 -240v-37q0 -51 7 -67q10 -22 46 -22q32 0 68 17l-1 -62q-44 -16 -83 -16q-72 0 -97 43q-13 21 -13 69q0 20 2 77l6 238h-72l1 57h72l3 137h69zM154 -248h-45q23 22 40 49.5t19 48.5q-2 -1 -6 -1q-20 0 -33.5 13.5t-13.5 33.5q0 22 15 36.5
t37 14.5q25 0 40.5 -18t15.5 -48q0 -59 -69 -129z" />
    <glyph glyph-name="Tcaron" unicode="&#x164;" horiz-adv-x="463" 
d="M21 667h422v-65h-174v-602h-75v602h-173v65zM402 865l-130 -131h-80l-130 131h69l101 -88l100 88h70z" />
    <glyph glyph-name="tcaron" unicode="&#x165;" horiz-adv-x="314" 
d="M169 474h113l-1 -57h-113l-4 -240v-37q0 -51 7 -67q10 -22 46 -22q32 0 68 17l-1 -62q-44 -16 -83 -16q-72 0 -97 43q-13 21 -13 69q0 16 2 77l6 238h-72l1 57h72l3 137h69zM264 527h-45q23 22 40 49.5t19 48.5q-3 -1 -6 -1q-20 0 -33.5 14t-13.5 33q0 22 15 36.5
t37 14.5q25 0 40.5 -18t15.5 -48q0 -57 -69 -129z" />
    <glyph glyph-name="Tbar" unicode="&#x166;" horiz-adv-x="463" 
d="M269 436h135v-62h-135v-374h-75v374h-134v62h134v166h-173v65h422v-65h-174v-166z" />
    <glyph glyph-name="tbar" unicode="&#x167;" horiz-adv-x="318" 
d="M173 474h112v-57h-113l-2 -71h112l-1 -56h-112l-2 -113v-48q0 -46 11 -62t42 -16q33 0 69 17l-1 -62q-44 -16 -84 -16q-73 0 -97 44q-13 21 -13 68q0 18 2 77l3 111h-69v56h71l1 71h-72v57h74l2 137h69z" />
    <glyph glyph-name="Utilde" unicode="&#x168;" horiz-adv-x="625" 
d="M77 667h75v-393q0 -73 4 -102t17 -52q18 -30 55.5 -47.5t84.5 -17.5q52 0 90.5 20.5t54.5 57.5q15 34 15 141v393h75v-394q0 -79 -2.5 -106t-13.5 -54q-24 -59 -82 -91.5t-137 -32.5q-80 0 -138 32.5t-82 91.5q-11 27 -13.5 54t-2.5 106v394zM193 742l-43 16
q13 50 35 73.5t56 23.5q31 0 76 -26q49 -28 68 -28q37 0 49 58l41 -16q-7 -47 -31 -73.5t-59 -26.5q-27 0 -84 31q-39 22 -59 22q-36 0 -49 -54z" />
    <glyph glyph-name="utilde" unicode="&#x169;" horiz-adv-x="497" 
d="M141 559l-41 10q21 104 85 104q28 0 68 -26q42 -28 61 -28q32 0 44 58l41 -10q-7 -50 -29 -78.5t-54 -28.5q-27 0 -73 28q-42 26 -58 26q-32 0 -44 -55zM71 474h70v-290q0 -69 16 -95q25 -38 81 -38q63 0 96 53q20 34 20 101v269h70v-330q0 -79 1.5 -98.5t9.5 -45.5h-69
q-8 26 -10 63q-21 -40 -50.5 -57.5t-75.5 -17.5q-96 0 -138 72q-21 35 -21 124v290z" />
    <glyph glyph-name="Umacron" unicode="&#x16a;" horiz-adv-x="625" 
d="M77 667h75v-393q0 -73 4 -102t17 -52q18 -30 55.5 -47.5t84.5 -17.5q52 0 90.5 20.5t54.5 57.5q15 34 15 141v393h75v-394q0 -79 -2.5 -106t-13.5 -54q-24 -59 -82 -91.5t-137 -32.5q-80 0 -138 32.5t-82 91.5q-11 27 -13.5 54t-2.5 106v394zM169 826h288v-52h-288v52z
" />
    <glyph glyph-name="umacron" unicode="&#x16b;" horiz-adv-x="497" 
d="M71 474h70v-290q0 -69 16 -95q25 -38 81 -38q63 0 96 53q20 34 20 101v269h70v-330q0 -79 1.5 -98.5t9.5 -45.5h-69q-8 26 -10 63q-21 -40 -50.5 -57.5t-75.5 -17.5q-96 0 -138 72q-21 35 -21 124v290zM112 644h273v-53h-273v53z" />
    <glyph glyph-name="Ubreve" unicode="&#x16c;" horiz-adv-x="625" 
d="M77 667h75v-393q0 -73 4 -102t17 -52q18 -30 55.5 -47.5t84.5 -17.5q52 0 90.5 20.5t54.5 57.5q15 34 15 141v393h75v-394q0 -79 -2.5 -106t-13.5 -54q-24 -59 -82 -91.5t-137 -32.5q-80 0 -138 32.5t-82 91.5q-11 27 -13.5 54t-2.5 106v394zM177 866h40q24 -77 96 -77
q71 0 96 77h40q-8 -61 -44 -97t-91 -36q-56 0 -93.5 36.5t-43.5 96.5z" />
    <glyph glyph-name="ubreve" unicode="&#x16d;" horiz-adv-x="497" 
d="M125 682h41q22 -78 83 -78q60 0 81 78h41q-6 -63 -38.5 -99t-82.5 -36t-84.5 37t-40.5 98zM71 474h70v-290q0 -69 16 -95q25 -38 81 -38q63 0 96 53q20 34 20 101v269h70v-330q0 -79 1.5 -98.5t9.5 -45.5h-69q-8 26 -10 63q-21 -40 -50.5 -57.5t-75.5 -17.5
q-96 0 -138 72q-21 35 -21 124v290z" />
    <glyph glyph-name="Uring" unicode="&#x16e;" horiz-adv-x="625" 
d="M314 900q37 0 64 -27t27 -65t-27 -65t-65 -27t-65 27t-27 65t27 65t66 27zM314 857q-21 0 -35.5 -14.5t-14.5 -34.5t14.5 -34.5t34.5 -14.5t34.5 14.5t14.5 34.5t-14 34.5t-34 14.5zM77 667h75v-393q0 -73 4 -102t17 -52q18 -30 55.5 -47.5t84.5 -17.5q52 0 90.5 20.5
t54.5 57.5q15 34 15 141v393h75v-394q0 -79 -2.5 -106t-13.5 -54q-24 -59 -82 -91.5t-137 -32.5q-80 0 -138 32.5t-82 91.5q-11 27 -13.5 54t-2.5 106v394z" />
    <glyph glyph-name="uring" unicode="&#x16f;" horiz-adv-x="497" 
d="M249 718q37 0 64 -27t27 -65q0 -39 -27 -66t-65 -27t-65 27.5t-27 64.5q0 39 27 66t66 27zM249 675q-21 0 -35.5 -14.5t-14.5 -35.5q0 -20 14.5 -34.5t34.5 -14.5t34.5 14.5t14.5 35.5q0 20 -14 34.5t-34 14.5zM71 474h70v-290q0 -69 16 -95q25 -38 81 -38q63 0 96 53
q20 34 20 101v269h70v-330q0 -79 1.5 -98.5t9.5 -45.5h-69q-8 26 -10 63q-21 -40 -50.5 -57.5t-75.5 -17.5q-96 0 -138 72q-21 35 -21 124v290z" />
    <glyph glyph-name="Uhungarumlaut" unicode="&#x170;" horiz-adv-x="625" 
d="M209 731l106 137h85l-131 -137h-60zM333 731l106 137h85l-131 -137h-60zM77 667h75v-393q0 -75 4 -103.5t17 -50.5q18 -30 55.5 -47.5t84.5 -17.5q52 0 90.5 20.5t54.5 57.5q15 34 15 141v393h75v-394q0 -79 -2.5 -106t-13.5 -54q-24 -59 -82 -91.5t-137 -32.5
q-80 0 -138 32.5t-82 91.5q-11 27 -13.5 53.5t-2.5 106.5v394z" />
    <glyph glyph-name="uhungarumlaut" unicode="&#x171;" horiz-adv-x="497" 
d="M160 546l90 137h84l-116 -137h-58zM282 546l89 137h84l-116 -137h-57zM71 474h70v-290q0 -69 16 -95q25 -38 81 -38q63 0 96 53q20 34 20 101v269h70v-330q0 -79 1.5 -98.5t9.5 -45.5h-69q-8 26 -10 63q-21 -40 -50.5 -57.5t-75.5 -17.5q-96 0 -138 72q-21 35 -21 124
v290z" />
    <glyph glyph-name="Uogonek" unicode="&#x172;" horiz-adv-x="625" 
d="M483 -134v-46q-36 -13 -64 -13q-46 0 -75.5 25.5t-29.5 65.5q0 30 16 50.5t64 50.5q-40 -10 -77 -10q-83 0 -141.5 32.5t-82.5 91.5q-11 27 -13.5 54t-2.5 106v394h75v-393q0 -73 4 -102t17 -52q18 -30 55.5 -47.5t84.5 -17.5q52 0 90.5 20.5t54.5 57.5q15 34 15 141v393
h75v-394q1 -118 -15 -158.5t-97 -120.5q-55 -55 -55 -87q0 -23 16 -36t44 -13q17 0 42 8z" />
    <glyph glyph-name="uogonek" unicode="&#x173;" horiz-adv-x="497" 
d="M424 474v-330q0 -78 1.5 -98.5t9.5 -45.5q-21 -13 -52 -43q-24 -23 -24 -45q0 -20 14 -32.5t37 -12.5q19 0 41 8v-44q-28 -11 -60 -11q-43 0 -71 23.5t-28 59.5q0 30 18.5 50.5t68.5 46.5h-13q-8 26 -10 63q-21 -40 -50.5 -57.5t-75.5 -17.5q-96 0 -138 72
q-21 35 -21 124v290h70v-290q0 -69 16 -95q25 -38 81 -38q63 0 96 53q20 34 20 101v269h70z" />
    <glyph glyph-name="Wcircumflex" unicode="&#x174;" horiz-adv-x="777" 
d="M17 667h71l129 -568l139 568h64l139 -568l130 568h70l-159 -671h-81l-132 521l-131 -521h-81zM219 734l130 131h80l130 -131h-69l-101 88l-101 -88h-69z" />
    <glyph glyph-name="wcircumflex" unicode="&#x175;" horiz-adv-x="661" 
d="M15 474h72l102 -376l111 376h60l111 -376l102 376h72l-137 -480h-69l-109 372l-110 -372h-68zM177 550l113 140h80l114 -140h-68l-86 94l-85 -94h-68z" />
    <glyph glyph-name="Ycircumflex" unicode="&#x176;" horiz-adv-x="512" 
d="M86 734l130 131h81l129 -131h-69l-101 88l-100 -88h-70zM12 667h86l160 -312l157 312h86l-208 -387l1 -280h-75l1 280z" />
    <glyph glyph-name="ycircumflex" unicode="&#x177;" horiz-adv-x="438" 
d="M16 474h75l128 -395l134 395h73l-156 -441q-33 -94 -47 -123t-37 -54q-51 -56 -138 -56q-12 0 -21 1v62q68 -1 97 24t57 108zM67 550l113 140h81l113 -140h-68l-85 94l-86 -94h-68z" />
    <glyph glyph-name="Ydieresis" unicode="&#x178;" horiz-adv-x="512" 
d="M167 857q23 0 39.5 -17t16.5 -40q0 -24 -16.5 -40.5t-39.5 -16.5q-24 0 -40.5 17t-16.5 40q0 24 16.5 40.5t40.5 16.5zM346 857q23 0 39.5 -17t16.5 -40t-16.5 -40t-39.5 -17q-24 0 -40.5 17t-16.5 40q0 24 16.5 40.5t40.5 16.5zM12 667h86l160 -312l157 312h86
l-208 -387l1 -280h-75l1 280z" />
    <glyph glyph-name="Zacute" unicode="&#x179;" horiz-adv-x="493" 
d="M52 667h410v-51l-343 -551h337v-65h-425v58l340 545h-319v64zM183 731l139 137h100l-166 -137h-73z" />
    <glyph glyph-name="zacute" unicode="&#x17a;" horiz-adv-x="398" 
d="M43 474h334v-52l-272 -364h267v-58h-350v55l269 361h-248v58zM148 547l103 137h100l-145 -137h-58z" />
    <glyph glyph-name="Zdotaccent" unicode="&#x17b;" horiz-adv-x="493" 
d="M52 667h410v-51l-343 -551h337v-65h-425v58l340 545h-319v64zM256 862q26 0 44 -18t18 -44t-18.5 -44.5t-44.5 -18.5q-25 0 -43.5 18.5t-18.5 43.5q0 26 18.5 44.5t44.5 18.5z" />
    <glyph glyph-name="zdotaccent" unicode="&#x17c;" horiz-adv-x="398" 
d="M43 474h334v-52l-272 -364h267v-58h-350v55l269 361h-248v58zM210 672q22 0 37 -15.5t15 -36.5q0 -22 -15 -37.5t-37 -15.5t-37.5 15.5t-15.5 36.5q0 23 15.5 38t37.5 15z" />
    <glyph glyph-name="Zcaron" unicode="&#x17d;" horiz-adv-x="493" 
d="M52 667h410v-51l-343 -551h337v-65h-425v58l340 545h-319v64zM428 865l-130 -131h-81l-129 131h69l101 -88l100 88h70z" />
    <glyph glyph-name="zcaron" unicode="&#x17e;" horiz-adv-x="398" 
d="M43 474h334v-52l-272 -364h267v-58h-350v55l269 361h-248v58zM363 690l-113 -140h-80l-113 140h67l86 -94l85 94h68z" />
    <glyph glyph-name="longs" unicode="&#x17f;" horiz-adv-x="284" 
d="M83 0v505q0 89 20 121q33 55 106 55q34 0 75 -15v-65q-39 18 -66 18q-34 0 -49 -23q-12 -20 -12 -90v-506h-74z" />
    <glyph glyph-name="uni018F" unicode="&#x18f;" horiz-adv-x="647" 
d="M51 358l469 -1q-11 70 -17 95t-20 51q-57 110 -159 110q-52 0 -96 -31.5t-63 -81.5l-69 35q30 64 93 104t134 40q57 0 108 -24t83 -65q38 -48 59.5 -118.5t21.5 -145.5q0 -148 -76 -242.5t-195 -94.5q-57 0 -108.5 24t-82.5 65q-35 45 -52 104t-30 176zM519 305h-389
q3 -64 36 -138q48 -112 158 -112q114 0 169 132q23 58 26 118z" />
    <glyph glyph-name="florin" unicode="&#x192;" horiz-adv-x="533" 
d="M349 474h103v-58h-113l-59 -338q-21 -120 -41 -156q-35 -62 -109 -62q-51 0 -114 33l12 65q53 -35 96 -35q37 0 51.5 27.5t33.5 133.5l58 332h-93v58h104l12 68q16 91 39 123q37 51 102 51q40 0 85 -21l-11 -61q-46 21 -72 21q-30 0 -45.5 -27t-28.5 -102z" />
    <glyph glyph-name="Ohorn" unicode="&#x1a0;" horiz-adv-x="646" 
d="M561 625h-6q-20 1 -33.5 14t-13.5 33q0 22 15 36.5t38 14.5q25 0 40.5 -18t15.5 -47q0 -58 -65 -127q42 -81 42 -199q0 -152 -75.5 -247.5t-195.5 -95.5q-121 0 -196.5 95.5t-75.5 249.5t75.5 249.5t196.5 95.5q129 0 210 -116q25 37 28 62zM323 613q-86 0 -139 -75.5
t-53 -199.5q0 -130 52 -206.5t140 -76.5q86 0 138.5 76.5t52.5 202.5t-52.5 202.5t-138.5 76.5z" />
    <glyph glyph-name="ohorn" unicode="&#x1a1;" horiz-adv-x="504" 
d="M432 376l-2 -2q29 -64 29 -137q0 -110 -57.5 -179.5t-149.5 -69.5t-149.5 69.5t-57.5 179.5t58 180t149 70q101 0 159 -82q28 37 31 65h-6q-20 0 -33.5 14t-13.5 33q0 22 15 36.5t37 14.5q25 0 40.5 -18t15.5 -48q0 -57 -65 -126zM252 427q-60 0 -97.5 -52t-37.5 -135
q0 -87 37 -139.5t98 -52.5t98 52t37 138q0 85 -37 137t-98 52z" />
    <glyph glyph-name="Uhorn" unicode="&#x1af;" horiz-adv-x="625" 
d="M77 667h75v-393q0 -73 4 -102t17 -52q18 -30 55.5 -47.5t84.5 -17.5q52 0 90.5 20.5t54.5 57.5q15 34 15 141v393h75v-394q0 -79 -2.5 -106t-13.5 -54q-24 -59 -82 -91.5t-137 -32.5q-80 0 -138 32.5t-82 91.5q-11 27 -13.5 54t-2.5 106v394zM647 552h-46q55 53 60 99h-7
q-19 0 -33 14t-14 34q0 21 15.5 36t37.5 15q25 0 41 -18.5t16 -47.5q0 -58 -70 -132z" />
    <glyph glyph-name="uhorn" unicode="&#x1b0;" horiz-adv-x="497" 
d="M71 474h70v-290q0 -69 16 -95q25 -38 81 -38q63 0 96 53q20 34 20 101v269h70v-330q0 -79 1.5 -98.5t9.5 -45.5h-69q-8 26 -10 63q-21 -40 -50.5 -57.5t-75.5 -17.5q-96 0 -138 72q-21 35 -21 124v290zM499 378h-46q24 22 40.5 49.5t18.5 48.5h-6q-20 1 -33.5 14.5
t-13.5 32.5q0 21 15 35.5t37 14.5q25 0 40.5 -18t15.5 -48q0 -57 -68 -129z" />
    <glyph glyph-name="uni01CD" unicode="&#x1cd;" horiz-adv-x="566" 
d="M250 671h65l230 -671h-78l-59 177h-251l-60 -177h-77zM387 242l-105 332l-105 -332h210zM452 865l-129 -131h-81l-130 131h70l100 -88l101 88h69z" />
    <glyph glyph-name="uni01CE" unicode="&#x1ce;" horiz-adv-x="476" 
d="M132 350h-69q8 67 53 102t124 35q58 0 98.5 -20.5t53.5 -57.5q11 -29 11 -106v-178q-1 -86 13 -125h-67q-7 22 -11 64q-42 -76 -139 -76q-70 0 -111.5 37.5t-41.5 99.5q0 101 110 142q59 22 178 42v20q0 53 -22 75.5t-75 22.5q-90 0 -105 -77zM334 210v47
q-119 -21 -167.5 -49.5t-48.5 -77.5q0 -37 25.5 -60t66.5 -23q71 0 105 56q19 34 19 107zM394 690l-113 -140h-80l-113 140h67l86 -94l85 94h68z" />
    <glyph glyph-name="uni01D2" unicode="&#x1d2;" horiz-adv-x="504" 
d="M252 487q92 0 149.5 -69.5t57.5 -180.5q0 -110 -58 -179.5t-149 -69.5q-92 0 -149.5 70t-57.5 183q0 107 58 176.5t149 69.5zM252 427q-60 0 -97.5 -52t-37.5 -135q0 -87 37 -139.5t98 -52.5t98 52t37 138q0 85 -37 137t-98 52zM402 690l-113 -140h-80l-113 140h67
l86 -94l85 94h68z" />
    <glyph glyph-name="uni01D3" unicode="&#x1d3;" horiz-adv-x="625" 
d="M483 865l-130 -131h-80l-130 131h69l101 -88l100 88h70zM77 667h75v-393q0 -73 4 -102t17 -52q18 -30 55.5 -47.5t84.5 -17.5q52 0 90.5 20.5t54.5 57.5q15 34 15 141v393h75v-394q0 -79 -2.5 -106t-13.5 -54q-24 -59 -82 -91.5t-137 -32.5q-80 0 -138 32.5t-82 91.5
q-11 27 -13.5 54t-2.5 106v394z" />
    <glyph glyph-name="uni01D4" unicode="&#x1d4;" horiz-adv-x="497" 
d="M71 474h70v-290q0 -69 16 -95q25 -38 81 -38q63 0 96 53q20 34 20 101v269h70v-330q0 -79 1.5 -98.5t9.5 -45.5h-69q-8 26 -10 63q-21 -40 -50.5 -57.5t-75.5 -17.5q-96 0 -138 72q-21 35 -21 124v290zM401 690l-113 -140h-80l-113 140h68l85 -94l85 94h68z" />
    <glyph glyph-name="uni01DD" unicode="&#x1dd;" horiz-adv-x="486" 
d="M45 250h324q-3 86 -38 131.5t-99 45.5q-40 0 -65.5 -16.5t-44.5 -55.5l-65 8q42 124 176 124q95 0 151.5 -66t56.5 -178q0 -116 -55.5 -185.5t-148.5 -69.5q-87 0 -139.5 66t-52.5 176v20zM367 195h-249q6 -72 37.5 -110t84.5 -38q106 0 127 148z" />
    <glyph glyph-name="Gcaron" unicode="&#x1e6;" horiz-adv-x="622" 
d="M500 865l-130 -131h-80l-130 131h69l101 -88l100 88h70zM356 331h203v-274q-97 -69 -220 -69q-134 0 -211 93.5t-77 255.5q0 155 75.5 248.5t200.5 93.5q112 0 175 -74q37 -44 48 -122h-70q-16 67 -53 98.5t-101 31.5q-91 0 -143 -74.5t-52 -202.5q0 -150 72 -228
q49 -54 137 -54q78 0 151 44v169l-135 -1v65z" />
    <glyph glyph-name="gcaron" unicode="&#x1e7;" horiz-adv-x="483" 
d="M403 690l-113 -140h-81l-113 140h68l85 -94l86 94h68zM461 474v-53l-97 2q41 -38 41 -109t-46 -107q-30 -23 -109 -40q-55 -12 -72 -20q-28 -14 -28 -32q0 -15 16.5 -20.5t78.5 -11.5q70 -7 98 -12.5t51 -18.5q63 -33 63 -109q0 -68 -57.5 -107.5t-157.5 -39.5
q-97 0 -155 37.5t-58 99.5q0 43 23.5 70.5t76.5 46.5q-51 19 -51 55q0 24 19.5 41.5t65.5 34.5q-95 38 -95 137q0 73 47.5 117.5t126.5 44.5q36 0 74 -11zM241 424q-47 0 -76.5 -29t-29.5 -75q0 -44 28 -71t74 -27t74 27t28 71q0 45 -27.5 74.5t-70.5 29.5zM238 19
q-69 0 -107 -21.5t-38 -60.5q0 -38 41 -60.5t109 -22.5q67 0 106.5 22.5t39.5 60.5q0 82 -151 82z" />
    <glyph glyph-name="uni01F4" unicode="&#x1f4;" horiz-adv-x="622" 
d="M254 731l138 137h100l-166 -137h-72zM356 331h203v-274q-97 -69 -220 -69q-134 0 -211 93.5t-77 255.5q0 155 75.5 248.5t200.5 93.5q112 0 175 -74q37 -44 48 -122h-70q-16 67 -53 98.5t-101 31.5q-91 0 -143 -74.5t-52 -202.5q0 -150 72 -228q49 -54 137 -54
q78 0 151 44v169l-135 -1v65z" />
    <glyph glyph-name="Aringacute" unicode="&#x1fa;" horiz-adv-x="566" 
d="M250 671h65l230 -671h-78l-59 177h-251l-60 -177h-77zM387 242l-105 332l-105 -332h210zM285 866q37 0 64 -27t27 -65t-27 -65t-65 -27t-65 27t-27 65t27 65t66 27zM285 823q-21 0 -35.5 -14.5t-14.5 -34.5t14.5 -34.5t34.5 -14.5t34.5 14.5t14.5 34.5t-14 34.5t-34 14.5
zM146 851l138 136h100l-166 -136h-72z" />
    <glyph glyph-name="AEacute" unicode="&#x1fc;" horiz-adv-x="852" 
d="M403 667h404v-65h-288v-224h264v-65h-264v-248h290v-65h-367v177h-238l-100 -177h-83zM442 242v359l-201 -359h201zM452 731l139 137h100l-166 -137h-73z" />
    <glyph glyph-name="aeacute" unicode="&#x1fd;" horiz-adv-x="771" 
d="M726 227h-325q1 -86 37.5 -132.5t103.5 -46.5q76 0 111 72l65 -8q-16 -57 -63 -90.5t-112 -33.5q-59 0 -105 27t-71 76q-54 -103 -166 -103q-68 0 -111 36t-43 94q0 78 73.5 121t208.5 43v30q0 60 -15 84q-22 31 -76 31q-87 0 -110 -83h-66q9 68 56 105.5t122 37.5
q115 0 146 -82q55 82 148 82q88 0 140 -66.5t52 -178.5v-15zM404 282h244q-4 70 -34 108t-82 38q-51 0 -84.5 -38.5t-43.5 -107.5zM329 227h-13h-9q-88 -1 -138 -29t-50 -77q0 -33 24.5 -53.5t64.5 -20.5q69 0 102 56q19 31 19 92v32zM347 547l103 137h101l-146 -137h-58z
" />
    <glyph glyph-name="Oslashacute" unicode="&#x1fe;" horiz-adv-x="646" 
d="M489 615l39 52h62l-65 -91q69 -100 69 -248q0 -151 -76 -245t-197 -94q-48 0 -84 14t-83 51l-38 -54h-61l64 92q-38 65 -53 118t-15 124q0 178 98 273q74 72 176 72q46 0 81 -13.5t83 -50.5zM168 156l278 401q-48 57 -126 57q-81 0 -129 -66q-60 -85 -60 -212
q0 -100 37 -180zM476 511l-278 -400q31 -31 58 -43.5t63 -12.5q88 0 141.5 76t53.5 201q0 109 -38 179zM273 731l138 137h101l-167 -137h-72z" />
    <glyph glyph-name="oslashacute" unicode="&#x1ff;" horiz-adv-x="504" 
d="M27 0l60 75q-42 67 -42 158q0 112 58.5 183.5t149.5 71.5q40 0 69 -11.5t65 -41.5l34 39h56l-60 -74l5 -9q37 -70 37 -150q0 -112 -58.5 -182.5t-150.5 -70.5q-37 0 -73 13.5t-58 36.5l-34 -38h-58zM136 131l208 254q-42 43 -90 43q-61 0 -99 -54.5t-38 -142.5
q0 -53 19 -100zM369 342l-207 -254q13 -17 38 -28.5t50 -11.5q61 0 99 54t38 141q0 55 -18 99zM214 547l104 137h100l-146 -137h-58z" />
    <glyph glyph-name="Scommaaccent" unicode="&#x218;" horiz-adv-x="547" 
d="M473 494h-73q-5 57 -39 88t-91 31q-53 0 -87.5 -29t-34.5 -73t40 -70q22 -15 119 -59q112 -49 145 -88q40 -48 40 -115q0 -85 -60 -137.5t-158 -52.5q-121 0 -180 77q-37 48 -43 137h73q5 -72 44 -110t109 -38q61 0 99.5 32.5t38.5 82.5q0 48 -40 82q-25 21 -104 56
q-100 45 -136 73q-62 48 -62 124t56.5 125t144.5 49q111 0 165 -76q30 -41 34 -109zM260 -251h-46q55 53 60 99q-54 2 -54 47q0 22 15 36.5t38 14.5q25 0 40.5 -18.5t15.5 -47.5q0 -58 -69 -131z" />
    <glyph glyph-name="scommaaccent" unicode="&#x219;" horiz-adv-x="438" 
d="M210 -248h-45q54 51 59 98q-2 -1 -6 -1q-20 0 -33.5 13.5t-13.5 33.5q0 22 15 36.5t37 14.5q25 0 40.5 -18t15.5 -47q0 -60 -69 -130zM387 344h-68q-10 85 -97 85q-40 0 -65.5 -19.5t-25.5 -51.5q0 -29 21 -44.5t89 -35.5q100 -29 125 -58q29 -32 29 -84
q0 -68 -46.5 -108t-125.5 -40q-86 0 -132.5 41t-46.5 118h68q9 -100 110 -100q46 0 73.5 22.5t27.5 60.5q0 37 -30 56q-17 10 -106 38q-69 21 -98 50.5t-29 78.5q0 60 45 97t118 37q76 0 118 -37t46 -106z" />
    <glyph glyph-name="uni021A" unicode="&#x21a;" horiz-adv-x="463" 
d="M21 667h422v-65h-174v-602h-75v602h-173v65zM215 -251h-46q55 53 60 99q-54 2 -54 47q0 22 15.5 36.5t37.5 14.5q25 0 41 -18t16 -47q0 -59 -70 -132z" />
    <glyph glyph-name="uni021B" unicode="&#x21b;" horiz-adv-x="314" 
d="M169 474h113l-1 -57h-113l-4 -240v-37q0 -51 7 -67q10 -22 46 -22q32 0 68 17l-1 -62q-44 -16 -83 -16q-72 0 -97 43q-13 21 -13 69q0 20 2 77l6 238h-72l1 57h72l3 137h69zM154 -248h-45q23 22 40 49.5t19 48.5q-2 -1 -6 -1q-20 0 -33.5 13.5t-13.5 33.5q0 22 15 36.5
t37 14.5q25 0 40.5 -18t15.5 -48q0 -59 -69 -129z" />
    <glyph glyph-name="uni0226" unicode="&#x226;" horiz-adv-x="566" 
d="M250 671h65l230 -671h-78l-59 177h-251l-60 -177h-77zM387 242l-105 332l-105 -332h210zM283 862q25 0 43.5 -18t18.5 -44t-18 -44.5t-44 -18.5t-44.5 18t-18.5 44t18.5 44.5t44.5 18.5z" />
    <glyph glyph-name="uni0227" unicode="&#x227;" horiz-adv-x="476" 
d="M242 672q22 0 37 -15.5t15 -36.5q0 -22 -15 -37.5t-37 -15.5t-37.5 15.5t-15.5 36.5q0 23 15.5 38t37.5 15zM132 350h-69q8 67 53 102t124 35q58 0 98.5 -20.5t53.5 -57.5q11 -29 11 -106v-178q-1 -86 13 -125h-67q-7 22 -11 64q-42 -76 -139 -76q-70 0 -111.5 37.5
t-41.5 99.5q0 101 110 142q59 22 178 42v20q0 53 -22 75.5t-75 22.5q-90 0 -105 -77zM334 210v47q-119 -21 -167.5 -49.5t-48.5 -77.5q0 -37 25.5 -60t66.5 -23q71 0 105 56q19 34 19 107z" />
    <glyph glyph-name="uni0237" unicode="&#x237;" horiz-adv-x="251" 
d="M105 474h74v-433q0 -80 -6.5 -113.5t-26.5 -59.5q-43 -55 -149 -55h-24v62h9h8q75 3 96 33.5t19 132.5v433z" />
    <glyph glyph-name="uni0259" unicode="&#x259;" horiz-adv-x="486" 
d="M45 250h324q-3 86 -38 131.5t-99 45.5q-40 0 -65.5 -16.5t-44.5 -55.5l-65 8q42 124 176 124q95 0 151.5 -66t56.5 -178q0 -116 -55.5 -185.5t-148.5 -69.5q-87 0 -139.5 66t-52.5 176v20zM367 195h-249q6 -72 37.5 -110t84.5 -38q106 0 127 148z" />
    <glyph glyph-name="afii57929" unicode="&#x2bc;" horiz-adv-x="223" 
d="M96 453h-61q64 63 71 117q-27 0 -43 14t-16 39q0 23 17 39.5t41 16.5q28 0 45 -20.5t17 -53.5q0 -69 -71 -152z" />
    <glyph glyph-name="circumflex" unicode="&#x2c6;" 
d="M97 550l113 140h80l114 -140h-68l-86 94l-85 -94h-68z" />
    <glyph glyph-name="caron" unicode="&#x2c7;" 
d="M404 690l-113 -140h-81l-113 140h68l85 -94l86 94h68z" />
    <glyph glyph-name="uni02C9" unicode="&#x2c9;" 
d="M114 644h273v-53h-273v53z" />
    <glyph glyph-name="breve" unicode="&#x2d8;" 
d="M127 682h41q10 -37 32 -57.5t51 -20.5q60 0 81 78h41q-6 -62 -38.5 -98.5t-82.5 -36.5t-84.5 37t-40.5 98z" />
    <glyph glyph-name="dotaccent" unicode="&#x2d9;" 
d="M250 672q22 0 37 -15.5t15 -36.5q0 -22 -15 -37.5t-37 -15.5t-37.5 15.5t-15.5 36.5q0 23 15.5 38t37.5 15z" />
    <glyph glyph-name="ring" unicode="&#x2da;" 
d="M251 718q37 0 64 -27t27 -65q0 -39 -27 -66t-65 -27t-65 27t-27 65q0 39 27 66t66 27zM251 675q-21 0 -35.5 -14.5t-14.5 -34.5q0 -21 14.5 -35.5t34.5 -14.5t34.5 14.5t14.5 35.5q0 20 -14 34.5t-34 14.5z" />
    <glyph glyph-name="ogonek" unicode="&#x2db;" 
d="M306 0h73q-96 -41 -96 -88q0 -20 15 -32.5t39 -12.5q19 0 41 8v-44q-27 -11 -59 -11q-43 0 -70.5 23.5t-27.5 60.5q0 65 85 96z" />
    <glyph glyph-name="tilde" unicode="&#x2dc;" 
d="M142 559l-41 10q21 104 85 104q29 0 67 -26q43 -28 62 -28q32 0 44 58l41 -10q-7 -49 -29 -78t-54 -29q-27 0 -73 28q-42 26 -59 26q-31 0 -43 -55z" />
    <glyph glyph-name="hungarumlaut" unicode="&#x2dd;" 
d="M164 546l90 137h83l-115 -137h-58zM285 546l90 137h84l-116 -137h-58z" />
    <glyph glyph-name="uni037E" unicode="&#x37e;" horiz-adv-x="239" 
d="M114 474q23 0 40 -17t17 -41q0 -23 -17 -40t-41 -17t-41 17t-17 40q0 25 17 41.5t42 16.5zM97 -146h-63q31 31 54 72.5t27 72.5h-8q-23 0 -38.5 16t-15.5 39q0 24 18 41t43 17q29 0 46.5 -21.5t17.5 -56.5q0 -79 -81 -180z" />
    <glyph glyph-name="tonos" unicode="&#x384;" horiz-adv-x="141" 
d="M96 534h-51l-12 173h75z" />
    <glyph glyph-name="dieresistonos" unicode="&#x385;" horiz-adv-x="405" 
d="M228 534h-52l-11 173h75zM86 672q22 0 37 -15.5t15 -36.5q0 -22 -15 -37.5t-37 -15.5t-37.5 15.5t-15.5 36.5q0 23 15.5 38t37.5 15zM319 672q22 0 37 -15.5t15 -36.5q0 -22 -15 -37.5t-37 -15.5t-37.5 15.5t-15.5 36.5q0 23 15 38t38 15z" />
    <glyph glyph-name="Alphatonos" unicode="&#x386;" horiz-adv-x="572" 
d="M257 671h65l230 -671h-78l-59 177h-251l-60 -177h-77zM394 242l-105 332l-105 -332h210zM130 534h-52l-11 173h75z" />
    <glyph glyph-name="uni0387" unicode="&#x387;" horiz-adv-x="255" 
d="M129 308q23 0 40 -17t17 -41q0 -23 -17 -40t-41 -17t-41 17t-17 40q0 25 17 41.5t42 16.5z" />
    <glyph glyph-name="Epsilontonos" unicode="&#x388;" horiz-adv-x="536" 
d="M196 378h270v-65h-270v-248h297v-65h-372v667h366v-65h-291v-224zM63 534h-51l-12 173h75z" />
    <glyph glyph-name="Etatonos" unicode="&#x389;" horiz-adv-x="669" 
d="M196 380h312v287h75v-667h-75v318h-312v-318h-75v667h75v-287zM63 534h-51l-12 173h75z" />
    <glyph glyph-name="Iotatonos" unicode="&#x38a;" horiz-adv-x="281" 
d="M196 0h-77v667h77v-667zM63 534h-51l-12 173h75z" />
    <glyph glyph-name="Omicrontonos" unicode="&#x38c;" horiz-adv-x="658" 
d="M335 679q121 0 196 -95.5t75 -249.5t-75 -249.5t-196 -95.5q-123 0 -197.5 96t-74.5 254q0 149 76 244.5t196 95.5zM335 613q-86 0 -139 -75.5t-53 -199.5q0 -130 52 -206.5t140 -76.5q86 0 138.5 76.5t52.5 202.5t-52.5 202.5t-138.5 76.5zM63 534h-51l-12 173h75z" />
    <glyph glyph-name="Upsilontonos" unicode="&#x38e;" horiz-adv-x="586" 
d="M85 667h86l160 -312l158 312h85l-208 -387l1 -280h-75l2 280zM56 534h-51l-12 173h75z" />
    <glyph glyph-name="Omegatonos" unicode="&#x38f;" horiz-adv-x="664" 
d="M63 534h-51l-12 173h75zM376 0v123q78 11 123 75t45 162q0 115 -56 184t-149 69t-149 -69t-56 -184q0 -98 45 -162t123 -75v-123h-248v65h187v19q-91 28 -139 100t-48 181q0 140 79 227t206 87t206 -87t79 -227q0 -109 -48 -181t-139 -100v-19h187v-65h-248z" />
    <glyph glyph-name="iotadieresistonos" unicode="&#x390;" horiz-adv-x="221" 
d="M73 474h74v-474h-74v474zM136 534h-52l-11 173h75zM-6 672q22 0 37 -15.5t15 -36.5q0 -22 -15 -37.5t-37 -15.5t-37.5 15.5t-15.5 36.5q0 23 15.5 38t37.5 15zM227 672q22 0 37 -15.5t15 -36.5q0 -22 -15 -37.5t-37 -15.5t-37.5 15.5t-15.5 36.5q0 23 15 38t38 15z" />
    <glyph glyph-name="Alpha" unicode="&#x391;" horiz-adv-x="566" 
d="M250 671h65l230 -671h-78l-59 177h-251l-60 -177h-77zM387 242l-105 332l-105 -332h210z" />
    <glyph glyph-name="Beta" unicode="&#x392;" horiz-adv-x="549" 
d="M86 667h122q114 0 163 -16q49 -17 76 -56t27 -94q0 -111 -111 -146q146 -35 146 -169q0 -61 -30.5 -107t-81.5 -62q-52 -17 -195 -17h-116v667zM160 380h63q88 0 125 21q50 27 50 95q0 74 -60 96q-31 12 -119 12h-59v-224zM160 63h67q105 0 144 17q59 26 59 110
q0 42 -20.5 72.5t-55.5 42.5q-40 12 -127 12h-67v-254z" />
    <glyph glyph-name="Gamma" unicode="&#x393;" horiz-adv-x="468" 
d="M86 0v667h362v-65h-285v-602h-77z" />
    <glyph glyph-name="uni0394" unicode="&#x394;" horiz-adv-x="538" 
d="M7 0l230 671h65l230 -671h-525zM433 65l-164 509l-164 -509h328z" />
    <glyph glyph-name="Epsilon" unicode="&#x395;" horiz-adv-x="502" 
d="M161 378h270v-65h-270v-248h298v-65h-373v667h366v-65h-291v-224z" />
    <glyph glyph-name="Zeta" unicode="&#x396;" horiz-adv-x="493" 
d="M52 667h410v-51l-343 -551h337v-65h-425v58l340 545h-319v64z" />
    <glyph glyph-name="Eta" unicode="&#x397;" horiz-adv-x="634" 
d="M161 380h313v287h75v-667h-75v318h-313v-318h-75v667h75v-287z" />
    <glyph glyph-name="Theta" unicode="&#x398;" horiz-adv-x="646" 
d="M323 679q121 0 196 -95.5t75 -249.5t-75 -249.5t-196 -95.5q-123 0 -197.5 96t-74.5 254q0 149 76 244.5t196 95.5zM323 613q-86 0 -139 -75.5t-53 -199.5q0 -130 52 -206.5t140 -76.5q86 0 138.5 76.5t52.5 202.5t-52.5 202.5t-138.5 76.5zM207 367h231v-62h-231v62z
" />
    <glyph glyph-name="Iota" unicode="&#x399;" horiz-adv-x="246" 
d="M162 0h-77v667h77v-667z" />
    <glyph glyph-name="Kappa" unicode="&#x39a;" horiz-adv-x="558" 
d="M432 667h91l-272 -315l298 -352h-102l-285 350zM86 667h75v-667h-75v667z" />
    <glyph glyph-name="Lambda" unicode="&#x39b;" horiz-adv-x="554" 
d="M544 0h-79l-190 580l-187 -580h-78l230 671h75z" />
    <glyph glyph-name="Mu" unicode="&#x39c;" horiz-adv-x="773" 
d="M86 667h113l187 -585l188 585h113v-667h-71v592l-192 -592h-75l-192 592v-592h-71v667z" />
    <glyph glyph-name="Nu" unicode="&#x39d;" horiz-adv-x="643" 
d="M86 667h81l320 -555v555h70v-667h-82l-318 554v-554h-71v667z" />
    <glyph glyph-name="Xi" unicode="&#x39e;" horiz-adv-x="511" 
d="M64 313v65h383v-65h-383zM37 0v65h438v-65h-438zM43 602v65h426v-65h-426z" />
    <glyph glyph-name="Omicron" unicode="&#x39f;" horiz-adv-x="646" 
d="M323 679q121 0 196 -95.5t75 -249.5t-75 -249.5t-196 -95.5q-123 0 -197.5 96t-74.5 254q0 149 76 244.5t196 95.5zM323 613q-86 0 -139 -75.5t-53 -199.5q0 -130 52 -206.5t140 -76.5q86 0 138.5 76.5t52.5 202.5t-52.5 202.5t-138.5 76.5z" />
    <glyph glyph-name="Pi" unicode="&#x3a0;" horiz-adv-x="634" 
d="M161 605v-605h-75v667h463v-667h-75v605h-313z" />
    <glyph glyph-name="Rho" unicode="&#x3a1;" horiz-adv-x="526" 
d="M86 667h110q131 0 184 -18q55 -18 86.5 -67t31.5 -115q0 -62 -27.5 -108t-76.5 -65q-54 -22 -184 -22h-49v-272h-75v667zM161 337h47q84 0 124 9q42 10 64.5 41.5t22.5 79.5q0 92 -68 119q-41 16 -151 16h-39v-265z" />
    <glyph glyph-name="Sigma" unicode="&#x3a3;" horiz-adv-x="465" 
d="M255 331l-221 285v51h410v-64h-304l201 -269l-230 -269h327v-65h-425v58z" />
    <glyph glyph-name="Tau" unicode="&#x3a4;" horiz-adv-x="463" 
d="M21 667h422v-65h-174v-602h-75v602h-173v65z" />
    <glyph glyph-name="Upsilon" unicode="&#x3a5;" horiz-adv-x="512" 
d="M12 667h86l160 -312l157 312h86l-208 -387l1 -280h-75l1 280z" />
    <glyph glyph-name="Phi" unicode="&#x3a6;" horiz-adv-x="697" 
d="M383 667v-67q95 -6 157 -43q123 -75 123 -227q0 -80 -37.5 -142.5t-105.5 -95.5q-57 -28 -137 -32v-60h-70v60q-97 6 -157 43q-123 75 -123 227q0 80 37.5 142t105.5 96q57 28 137 32v67h70zM313 120v420q-71 -4 -115 -33q-43 -26 -68 -73.5t-25 -103.5q0 -61 29.5 -112
t79.5 -75q33 -17 99 -23zM383 540v-420q70 4 115 32q43 27 68 74.5t25 103.5q0 62 -29 111.5t-80 75.5q-39 19 -99 23z" />
    <glyph glyph-name="Chi" unicode="&#x3a7;" horiz-adv-x="543" 
d="M32 667h86l154 -256l156 256h86l-198 -318l208 -349h-85l-167 279l-167 -279h-85l209 349z" />
    <glyph glyph-name="Psi" unicode="&#x3a8;" horiz-adv-x="610" 
d="M344 144v-144h-77v144q-143 0 -205 100q-18 34 -23.5 68.5t-4.5 116.5v238h75v-237q-1 -84 6.5 -117.5t32.5 -59.5q40 -41 119 -43v457h77v-457q79 2 119 43q25 26 32.5 59.5t6.5 117.5v237h75v-238q1 -88 -6 -124.5t-30 -71.5q-63 -89 -197 -89z" />
    <glyph glyph-name="uni03A9" unicode="&#x3a9;" horiz-adv-x="650" 
d="M362 0v123q78 11 123 75t45 162q0 115 -56 184t-149 69t-149 -69t-56 -184q0 -98 45 -162t123 -75v-123h-248v65h187v19q-91 28 -139 100t-48 181q0 140 79 227t206 87t206 -87t79 -227q0 -109 -48 -181t-139 -100v-19h187v-65h-248z" />
    <glyph glyph-name="Iotadieresis" unicode="&#x3aa;" horiz-adv-x="246" 
d="M161 0h-77v667h77v-667zM52 854q22 0 38 -16.5t16 -38.5q0 -23 -16 -39t-39 -16t-39 16t-16 39t16 39t40 16zM195 854q22 0 38 -16.5t16 -38.5q0 -23 -16.5 -39t-38.5 -16t-38.5 16t-16.5 39t16.5 39t39.5 16z" />
    <glyph glyph-name="Upsilondieresis" unicode="&#x3ab;" horiz-adv-x="512" 
d="M167 857q23 0 39.5 -17t16.5 -40q0 -24 -16.5 -40.5t-39.5 -16.5q-24 0 -40.5 17t-16.5 40q0 24 16.5 40.5t40.5 16.5zM346 857q23 0 39.5 -17t16.5 -40t-16.5 -40t-39.5 -17q-24 0 -40.5 17t-16.5 40q0 24 16.5 40.5t40.5 16.5zM12 667h86l160 -312l157 312h86
l-208 -387l1 -280h-75l1 280z" />
    <glyph glyph-name="alphatonos" unicode="&#x3ac;" horiz-adv-x="542" 
d="M294 534h-52l-11 173h74zM436 0l-25 122q-9 -25 -29 -57q-48 -77 -140 -77q-88 0 -142.5 69t-54.5 180q0 112 55.5 181t146.5 69q83 0 128 -57q18 -24 37 -70l19 114h70l-49 -237l54 -237h-70zM385 237q-25 91 -47 131q-32 59 -93 59q-58 0 -93 -52.5t-35 -138.5
q0 -83 35.5 -135.5t90.5 -52.5q62 0 98 72q20 43 44 117z" />
    <glyph glyph-name="epsilontonos" unicode="&#x3ad;" horiz-adv-x="454" 
d="M404 320h-69q-11 60 -35 84t-73 24q-43 0 -68 -22t-25 -59q0 -54 54 -73q23 -8 52 -8h28v-57q-18 1 -40 1q-54 0 -79 -19t-25 -59t28 -62t78 -22q51 0 76.5 27t31.5 88h70q-14 -175 -181 -175q-79 0 -126.5 38t-47.5 102q0 88 91 111q-81 30 -81 111q0 63 44 100.5
t118 37.5q103 0 149 -71q24 -37 30 -97zM252 534h-51l-12 173h75z" />
    <glyph glyph-name="etatonos" unicode="&#x3ae;" horiz-adv-x="504" 
d="M61 474h67q10 -29 9 -69q49 82 144 82q48 0 84 -20.5t52 -56.5q10 -24 12.5 -46.5t2.5 -91.5v-469h-70v465q0 83 -13 110q-22 47 -82 47q-67 0 -102 -56q-23 -36 -23 -104v-265h-70v313q0 82 -1.5 104.5t-9.5 56.5zM277 534h-52l-11 173h74z" />
    <glyph glyph-name="iotatonos" unicode="&#x3af;" horiz-adv-x="221" 
d="M74 474h74v-474h-74v474zM136 534h-51l-12 173h75z" />
    <glyph glyph-name="upsilondieresistonos" unicode="&#x3b0;" horiz-adv-x="495" 
d="M424 474v-304q0 -86 -46.5 -134t-129.5 -48q-84 0 -130.5 48t-46.5 134v304h70v-304q0 -53 18 -80q29 -42 89 -42q29 0 54.5 13.5t37.5 35.5q14 26 14 73v304h70zM273 534h-51l-12 173h75zM131 672q22 0 37 -15.5t15 -36.5q0 -22 -15 -37.5t-37 -15.5t-37.5 15.5
t-15.5 36.5q0 23 15 38t38 15zM365 672q22 0 37 -15.5t15 -36.5q0 -22 -15 -37.5t-37 -15.5t-37.5 15.5t-15.5 36.5q0 23 15 38t38 15z" />
    <glyph glyph-name="alpha" unicode="&#x3b1;" horiz-adv-x="542" 
d="M436 0l-25 122q-9 -25 -29 -57q-48 -77 -140 -77q-88 0 -142.5 69t-54.5 180q0 112 55.5 181t146.5 69q83 0 128 -57q18 -24 37 -70l19 114h70l-49 -237l54 -237h-70zM385 237q-25 91 -47 131q-32 59 -93 59q-58 0 -93 -52.5t-35 -138.5q0 -83 35.5 -135.5t90.5 -52.5
q62 0 98 72q20 43 44 117z" />
    <glyph glyph-name="beta" unicode="&#x3b2;" horiz-adv-x="508" 
d="M74 -197v630q0 67 5.5 98t22.5 59q53 90 166 90q84 0 132.5 -47t48.5 -129q0 -72 -41 -116q-22 -24 -63 -35q49 -13 75 -42q43 -49 43 -128q0 -88 -48.5 -142t-126.5 -54q-94 0 -144 79v-263h-70zM248 322v56h15q50 0 78.5 33t28.5 90q0 55 -29.5 87t-79.5 32
q-44 0 -73.5 -25t-37.5 -69q-7 -36 -6 -93v-167q0 -110 26 -154q17 -31 46 -48t62 -17q51 0 82 38.5t31 100.5q0 84 -55 119q-27 17 -88 17z" />
    <glyph glyph-name="gamma" unicode="&#x3b3;" horiz-adv-x="423" 
d="M247 -6v-191h-70v176l-170 495h75l128 -395l134 395h73z" />
    <glyph glyph-name="delta" unicode="&#x3b4;" horiz-adv-x="504" 
d="M250 478l-153 137v52h334v-58h-235l164 -151q99 -92 99 -220q0 -111 -57.5 -180.5t-149.5 -69.5t-149.5 70t-57.5 182q0 121 65 186q53 53 123 53zM252 428q-60 0 -97.5 -52t-37.5 -135q0 -88 37 -140.5t98 -52.5t98 52t37 138t-37 138t-98 52z" />
    <glyph glyph-name="epsilon" unicode="&#x3b5;" horiz-adv-x="454" 
d="M401 347l-70 -8q-11 49 -34.5 69t-69.5 20q-43 0 -68 -22t-25 -59q0 -54 54 -73q16 -6 26.5 -7t53.5 -1v-57q-17 1 -40 1q-54 0 -79 -19t-25 -59t28 -62t78 -22q46 0 70 20.5t35 70.5l69 -8q-18 -77 -59 -109q-44 -34 -117 -34q-80 0 -127.5 38t-47.5 102q0 88 91 111
q-81 30 -81 111q0 63 44 100.5t118 37.5q79 0 122 -40q22 -19 33 -40t21 -61z" />
    <glyph glyph-name="zeta" unicode="&#x3b6;" horiz-adv-x="351" 
d="M382 667v-55q-145 -109 -205 -196t-60 -186q0 -108 54 -157q35 -32 106 -39q46 -5 68 -14q39 -20 39 -62q0 -51 -60 -155h-69q43 82 51 99.5t8 35.5q0 27 -17 36q-8 5 -42 8l-17 3q-69 9 -103 33q-43 29 -66.5 85t-23.5 127q0 102 59.5 192t192.5 190h-224v55h309z" />
    <glyph glyph-name="eta" unicode="&#x3b7;" horiz-adv-x="504" 
d="M61 474h67q10 -29 9 -69q49 82 144 82q48 0 84 -20.5t52 -56.5q10 -24 12.5 -46.5t2.5 -91.5v-469h-70v465q0 83 -13 110q-22 47 -82 47q-67 0 -102 -56q-23 -36 -23 -104v-265h-70v313q0 82 -1.5 104.5t-9.5 56.5z" />
    <glyph glyph-name="theta" unicode="&#x3b8;" horiz-adv-x="504" 
d="M118 363h268q-4 118 -40.5 188t-93.5 70t-93.5 -70t-40.5 -188zM386 306h-268q4 -119 40.5 -189t93.5 -70t93.5 70t40.5 189zM252 681q92 0 149.5 -96.5t57.5 -249.5t-57.5 -249.5t-149.5 -96.5t-149.5 97t-57.5 254q0 149 58 245t149 96z" />
    <glyph glyph-name="iota" unicode="&#x3b9;" horiz-adv-x="221" 
d="M73 474h74v-474h-74v474z" />
    <glyph glyph-name="kappa" unicode="&#x3ba;" horiz-adv-x="471" 
d="M344 474h85l-198 -213l213 -261h-97l-203 258zM73 474h70v-474h-70v474z" />
    <glyph glyph-name="lambda" unicode="&#x3bb;" horiz-adv-x="420" 
d="M178 483l-67 184h73l233 -667h-75l-129 395l-133 -395h-73z" />
    <glyph glyph-name="uni03BC" unicode="&#x3bc;" horiz-adv-x="497" 
d="M141 11v-208h-70v671h70v-290q0 -69 16 -95q25 -38 81 -38q63 0 96 53q20 34 20 101v269h70v-330q0 -79 1.5 -98.5t9.5 -45.5h-69q-8 26 -10 63q-40 -75 -125 -75q-50 0 -90 23z" />
    <glyph glyph-name="nu" unicode="&#x3bd;" horiz-adv-x="431" 
d="M10 474h73l133 -398l132 398h72l-168 -480h-74z" />
    <glyph glyph-name="xi" unicode="&#x3be;" horiz-adv-x="385" 
d="M371 610h-53q-58 0 -81.5 -4.5t-45.5 -20.5q-44 -31 -44 -81q0 -52 53 -77q37 -20 71 -20h38v-57h-41q-62 0 -94 -24q-52 -39 -52 -126q0 -46 18.5 -84t49.5 -57q32 -19 88 -24q47 -5 68 -15q39 -17 39 -63q0 -54 -64 -154h-69q39 65 50.5 91.5t11.5 49.5q0 21 -16 29
q-8 4 -42 9l-17 2q-69 9 -103 33q-40 27 -64 76.5t-24 104.5q0 97 56 148q29 27 76 36q-43 2 -72 35t-29 80q0 37 17 62t59 51h-90v57h306v-57z" />
    <glyph glyph-name="omicron" unicode="&#x3bf;" horiz-adv-x="504" 
d="M252 487q92 0 149.5 -69.5t57.5 -180.5q0 -110 -58 -179.5t-149 -69.5q-92 0 -149.5 70t-57.5 183q0 107 58 176.5t149 69.5zM252 427q-60 0 -97.5 -52t-37.5 -135q0 -87 37 -139.5t98 -52.5t98 52t37 138q0 85 -37 137t-98 52z" />
    <glyph glyph-name="pi" unicode="&#x3c0;" 
d="M346 416h-193v-416h-70v416h-73v58h480v-58h-74v-416h-70v416z" />
    <glyph glyph-name="rho" unicode="&#x3c1;" horiz-adv-x="501" 
d="M67 -197v420q0 64 9 102t32 73q58 89 160 89q85 0 137 -69t52 -182q0 -112 -50.5 -180t-132.5 -68q-86 0 -137 78v-263h-70zM264 426q-58 0 -93 -52t-35 -138q0 -83 35.5 -135t92.5 -52t89 49.5t32 135.5q0 88 -33 140t-88 52z" />
    <glyph glyph-name="uni03C2" unicode="&#x3c2;" horiz-adv-x="450" 
d="M416 320h-69q-10 58 -33.5 82.5t-69.5 24.5q-59 0 -93 -51t-34 -140q0 -109 54 -160q34 -31 107 -39q46 -4 68 -14q39 -17 39 -63q0 -59 -59 -157h-70q38 72 48.5 97t10.5 46q0 22 -16 30q-7 4 -43 9l-17 2q-68 9 -103 33q-91 62 -91 216q0 115 54.5 183t146.5 68
q75 0 118.5 -43t51.5 -124z" />
    <glyph glyph-name="sigma" unicode="&#x3c3;" horiz-adv-x="507" 
d="M498 474v-57q-29 0 -105 3q30 -26 48 -76t18 -109q0 -109 -58 -178t-149 -69q-92 0 -149.5 69.5t-57.5 179.5q0 109 57.5 179.5t146.5 70.5q19 0 75 -6q55 -7 174 -7zM252 427q-61 0 -98 -52.5t-37 -139.5q0 -83 37.5 -135t97.5 -52q61 0 98 52t37 138q0 85 -37 137
t-98 52z" />
    <glyph glyph-name="tau" unicode="&#x3c4;" horiz-adv-x="367" 
d="M364 474v-58h-143v-416h-74v416h-144v58h361z" />
    <glyph glyph-name="upsilon" unicode="&#x3c5;" horiz-adv-x="495" 
d="M424 474v-304q0 -86 -46.5 -134t-129.5 -48q-84 0 -130.5 48t-46.5 134v304h70v-304q0 -53 18 -80q29 -42 89 -42q29 0 54.5 13.5t37.5 35.5q14 26 14 73v304h70z" />
    <glyph glyph-name="phi" unicode="&#x3c6;" horiz-adv-x="604" 
d="M272 47v440q14 1 33 1q95 0 153 -38q49 -33 75.5 -88.5t26.5 -124.5q0 -107 -59 -174t-159 -74v-186h-70v185q-76 6 -124 37q-103 69 -103 213t109 215l32 -39q-40 -44 -56 -82.5t-16 -92.5q0 -84 41.5 -134.5t116.5 -57.5zM342 427v-379q70 8 109.5 58.5t39.5 130.5
t-40.5 131t-108.5 59z" />
    <glyph glyph-name="chi" unicode="&#x3c7;" horiz-adv-x="414" 
d="M246 160l171 -357h-75l-134 283l-136 -283h-75l174 359l-149 312h73l113 -239l114 239h76z" />
    <glyph glyph-name="psi" unicode="&#x3c8;" horiz-adv-x="643" 
d="M360 -12v-185h-70v185q-107 3 -163 58t-56 158v270h70v-270q-3 -146 149 -156v426h70v-426q75 8 109.5 45.5t33.5 110.5v270h70v-270q0 -101 -54.5 -156t-158.5 -60z" />
    <glyph glyph-name="omega" unicode="&#x3c9;" horiz-adv-x="604" 
d="M430 420l32 52q98 -58 98 -235q0 -113 -42.5 -181t-112.5 -68q-67 0 -103 61q-38 -61 -104 -61q-70 0 -112.5 68t-42.5 181q0 114 47 187q19 28 51 49l32 -53q-22 -17 -34 -42q-25 -54 -25 -140q0 -89 22 -139.5t62 -50.5q35 0 54 34t19 97v104h61v-104q0 -63 19 -97
t54 -34q39 0 61.5 50.5t22.5 138.5q0 139 -59 183z" />
    <glyph glyph-name="iotadieresis" unicode="&#x3ca;" horiz-adv-x="220" 
d="M73 474h74v-474h-74v474zM41 672q22 0 37 -15.5t15 -36.5q0 -22 -15 -37.5t-37 -15.5t-37.5 15.5t-15.5 36.5q0 23 15 38t38 15zM180 672q22 0 37 -15.5t15 -36.5q0 -22 -15 -37.5t-37 -15.5t-37.5 15.5t-15.5 36.5q0 23 15.5 38t37.5 15z" />
    <glyph glyph-name="upsilondieresis" unicode="&#x3cb;" horiz-adv-x="495" 
d="M424 474v-304q0 -86 -46.5 -134t-129.5 -48q-84 0 -130.5 48t-46.5 134v304h70v-304q0 -53 18 -80q29 -42 89 -42q29 0 54.5 13.5t37.5 35.5q14 26 14 73v304h70zM163 672q22 0 37 -15.5t15 -36.5q0 -22 -15 -37.5t-37 -15.5t-37.5 15.5t-15.5 36.5q0 23 15 38t38 15z
M333 672q22 0 37 -15.5t15 -36.5q0 -22 -15 -37.5t-37 -15.5t-37.5 15.5t-15.5 36.5q0 23 15 38t38 15z" />
    <glyph glyph-name="omicrontonos" unicode="&#x3cc;" horiz-adv-x="504" 
d="M252 487q92 0 149.5 -69.5t57.5 -180.5q0 -110 -58 -179.5t-149 -69.5q-92 0 -149.5 70t-57.5 183q0 107 58 176.5t149 69.5zM252 427q-60 0 -97.5 -52t-37.5 -135q0 -87 37 -139.5t98 -52.5t98 52t37 138q0 85 -37 137t-98 52zM278 534h-52l-11 173h74z" />
    <glyph glyph-name="upsilontonos" unicode="&#x3cd;" horiz-adv-x="495" 
d="M424 474v-304q0 -86 -46.5 -134t-129.5 -48q-84 0 -130.5 48t-46.5 134v304h70v-304q0 -53 18 -80q29 -42 89 -42q29 0 54.5 13.5t37.5 35.5q14 26 14 73v304h70zM273 534h-51l-12 173h75z" />
    <glyph glyph-name="omegatonos" unicode="&#x3ce;" horiz-adv-x="604" 
d="M328 534h-51l-12 173h75zM430 420l32 52q98 -58 98 -235q0 -113 -42.5 -181t-112.5 -68q-67 0 -103 61q-38 -61 -104 -61q-70 0 -112.5 68t-42.5 181q0 114 47 187q19 28 51 49l32 -53q-22 -17 -34 -42q-25 -54 -25 -140q0 -89 22 -139.5t62 -50.5q35 0 54 34t19 97v104
h61v-104q0 -63 19 -97t54 -34q39 0 61.5 50.5t22.5 138.5q0 139 -59 183z" />
    <glyph glyph-name="theta1" unicode="&#x3d1;" horiz-adv-x="506" 
d="M71 164h-54v70h123v-72q0 -64 21 -88q24 -27 67 -27q67 0 106.5 78t39.5 210q0 26 -3 55q-77 0 -104.5 2.5t-60.5 12.5q-57 16 -87.5 53t-30.5 90q0 60 39 96.5t102 36.5q166 0 207 -234h57v-57h-49q2 -44 2 -56q0 -163 -67 -266q-53 -81 -149 -81q-99 0 -138 68
q-13 22 -16.5 40.5t-4.5 68.5zM364 447q-31 174 -129 174q-33 0 -53.5 -21t-20.5 -54q0 -66 80 -88q39 -11 123 -11z" />
    <glyph glyph-name="Upsilon1" unicode="&#x3d2;" horiz-adv-x="495" 
d="M283 0h-72v148q-1 323 -208 478l44 53q162 -109 200 -324q38 215 200 324l44 -53q-207 -155 -208 -478v-148z" />
    <glyph glyph-name="phi1" unicode="&#x3d5;" horiz-adv-x="604" 
d="M272 43v389q-74 -6 -117.5 -58.5t-43.5 -136.5t42.5 -135t118.5 -59zM342 431v-387q72 9 112.5 60t40.5 133t-41.5 134.5t-111.5 59.5zM342 670v-183q100 -8 159 -75t59 -174t-59 -174.5t-159 -74.5v-186h-70v185q-78 7 -124 37q-49 33 -76 88.5t-27 124.5q0 73 31 131.5
t86 89.5q40 22 110 28v183h70z" />
    <glyph glyph-name="uni0400" unicode="&#x400;" horiz-adv-x="502" 
d="M161 378h270v-65h-270v-248h297v-65h-372v667h366v-65h-291v-224zM322 731h-73l-166 137h100z" />
    <glyph glyph-name="afii10023" unicode="&#x401;" horiz-adv-x="502" 
d="M161 378h270v-65h-270v-248h298v-65h-373v667h366v-65h-291v-224zM183 856q23 0 39.5 -16.5t16.5 -39.5q0 -24 -16.5 -40.5t-39.5 -16.5q-24 0 -40.5 16.5t-16.5 39.5q0 24 16.5 40.5t40.5 16.5zM362 856q23 0 39.5 -16.5t16.5 -39.5q0 -24 -16.5 -40.5t-39.5 -16.5
q-24 0 -40.5 16.5t-16.5 39.5q0 24 16.5 40.5t40.5 16.5z" />
    <glyph glyph-name="afii10051" unicode="&#x402;" horiz-adv-x="638" 
d="M232 602v-214q57 46 150 46q119 0 167 -74q17 -25 23 -54.5t6 -86.5v-219q0 -61 -11 -93t-41 -57q-43 -37 -131 -37h-12h-12v62h9h7q69 2 94.5 29t21.5 96v219q0 68 -16 96q-29 53 -114 53q-97 0 -141 -66v-302h-77v602h-152v65h422v-65h-193z" />
    <glyph glyph-name="afii10052" unicode="&#x403;" horiz-adv-x="468" 
d="M86 0v667h362v-65h-285v-602h-77zM233 731l138 137h101l-167 -137h-72z" />
    <glyph glyph-name="afii10053" unicode="&#x404;" horiz-adv-x="605" 
d="M132 365h239v-62h-239q7 -118 58 -183.5t136 -65.5q70 0 111.5 44t50.5 128h70q-9 -114 -68.5 -176t-160.5 -62q-128 0 -203 93t-75 251t75 252.5t200 94.5q93 0 150.5 -51.5t70.5 -145.5h-70q-28 131 -152 131q-83 0 -134.5 -66t-58.5 -182z" />
    <glyph glyph-name="afii10054" unicode="&#x405;" horiz-adv-x="547" 
d="M473 494h-73q-5 57 -39 88t-91 31q-53 0 -87.5 -29t-34.5 -73t40 -70q22 -15 119 -59q112 -49 145 -88q40 -48 40 -115q0 -85 -60 -137.5t-158 -52.5q-121 0 -180 77q-37 48 -43 137h73q5 -72 44 -110t109 -38q61 0 99.5 32.5t38.5 82.5q0 48 -40 82q-25 21 -104 56
q-100 45 -136 73q-62 48 -62 124t56.5 125t144.5 49q111 0 165 -76q30 -41 34 -109z" />
    <glyph glyph-name="afii10055" unicode="&#x406;" horiz-adv-x="246" 
d="M162 0h-77v667h77v-667z" />
    <glyph glyph-name="afii10056" unicode="&#x407;" horiz-adv-x="246" 
d="M161 0h-77v667h77v-667zM52 854q22 0 38 -16.5t16 -38.5q0 -23 -16 -39t-39 -16t-39 16t-16 39t16 39t40 16zM195 854q22 0 38 -16.5t16 -38.5q0 -23 -16.5 -39t-38.5 -16t-38.5 16t-16.5 39t16.5 39t39.5 16z" />
    <glyph glyph-name="afii10057" unicode="&#x408;" horiz-adv-x="288" 
d="M127 667h77v-532q0 -70 -3 -95t-13 -47q-38 -80 -166 -80h-24v65h11h6q81 2 102 47q10 22 10 110v532z" />
    <glyph glyph-name="afii10058" unicode="&#x409;" horiz-adv-x="862" 
d="M422 605h-210l-39 -449q-3 -77 -48 -119t-122 -41v63q59 3 78.5 33t26.5 127l35 448h355v-272h74q105 0 159 -22q49 -19 76.5 -65t27.5 -108q0 -66 -31.5 -115t-86.5 -67q-53 -18 -184 -18h-111v605zM497 330v-265h40q110 0 151 16q68 27 68 119q0 64 -38 97t-112 33
h-109z" />
    <glyph glyph-name="afii10059" unicode="&#x40a;" horiz-adv-x="912" 
d="M474 386v281h75v-281h74q104 0 159 -21q49 -19 76.5 -64.5t27.5 -105.5q0 -64 -31.5 -112t-86.5 -65q-53 -18 -184 -18h-110v324h-313v-324h-75v667h75v-281h313zM549 324v-259h39q110 0 151 16q32 12 50 42.5t18 73.5q0 127 -150 127h-108z" />
    <glyph glyph-name="afii10060" unicode="&#x40b;" horiz-adv-x="638" 
d="M503 0v219q0 68 -16 96q-29 53 -114 53q-97 0 -141 -66v-302h-77v602h-152v65h422v-65h-193v-214q57 46 151 46q118 0 166 -74q17 -25 23 -54.5t6 -86.5v-219h-75z" />
    <glyph glyph-name="afii10061" unicode="&#x40c;" horiz-adv-x="558" 
d="M432 667h91l-272 -315l298 -352h-102l-285 350zM86 667h75v-667h-75v667zM268 731l138 137h100l-166 -137h-72z" />
    <glyph glyph-name="uni040D" unicode="&#x40d;" horiz-adv-x="643" 
d="M364 731h-72l-166 137h100zM557 667v-667h-71v520l-330 -481v-39h-70v667h70v-520l330 481v39h71z" />
    <glyph glyph-name="afii10062" unicode="&#x40e;" horiz-adv-x="494" 
d="M127 866h40q25 -77 97 -77q71 0 95 77h40q-7 -61 -43.5 -97t-91.5 -36t-92.5 36.5t-44.5 96.5zM260 289l155 378h79l-294 -667h-75l100 212l-213 455h86z" />
    <glyph glyph-name="afii10145" unicode="&#x40f;" horiz-adv-x="634" 
d="M355 0v-100h-75v100h-194v667h75v-605h313v605h75v-667h-194z" />
    <glyph glyph-name="afii10017" unicode="&#x410;" horiz-adv-x="566" 
d="M250 671h65l230 -671h-78l-59 177h-251l-60 -177h-77zM387 242l-105 332l-105 -332h210z" />
    <glyph glyph-name="afii10018" unicode="&#x411;" horiz-adv-x="531" 
d="M161 602v-207h74q105 0 159 -22q49 -19 76.5 -65t27.5 -108q0 -66 -31.5 -115t-86.5 -67q-53 -18 -184 -18h-110v667h336v-65h-261zM161 330v-265h39q110 0 151 16q68 27 68 119q0 64 -38 97t-112 33h-108z" />
    <glyph glyph-name="afii10019" unicode="&#x412;" horiz-adv-x="549" 
d="M86 667h122q114 0 163 -16q49 -17 76 -56t27 -94q0 -111 -111 -146q146 -35 146 -169q0 -61 -30.5 -107t-81.5 -62q-52 -17 -195 -17h-116v667zM160 380h63q88 0 125 21q50 27 50 95q0 74 -60 96q-31 12 -119 12h-59v-224zM160 63h67q105 0 144 17q59 26 59 110
q0 42 -20.5 72.5t-55.5 42.5q-40 12 -127 12h-67v-254z" />
    <glyph glyph-name="afii10020" unicode="&#x413;" horiz-adv-x="468" 
d="M86 0v667h362v-65h-285v-602h-77z" />
    <glyph glyph-name="afii10021" unicode="&#x414;" horiz-adv-x="592" 
d="M504 62h68v-162h-75v100h-419v-100h-75v162h7q59 2 80 33.5t25 123.5l36 448h353v-605zM429 62v543h-210l-33 -386q0 -1 -0.5 -6t-1.5 -14t-1 -16q-6 -80 -31 -121h277z" />
    <glyph glyph-name="afii10022" unicode="&#x415;" horiz-adv-x="502" 
d="M161 378h270v-65h-270v-248h298v-65h-373v667h366v-65h-291v-224z" />
    <glyph glyph-name="afii10024" unicode="&#x416;" horiz-adv-x="777" 
d="M351 0v318h-47l-223 -318h-88l253 352l-240 315h84l215 -287h46v287h73v-287h46l215 287h84l-240 -315l253 -352h-88l-223 318h-47v-318h-73z" />
    <glyph glyph-name="afii10025" unicode="&#x417;" horiz-adv-x="552" 
d="M128 482h-70q26 197 231 197q101 0 158.5 -50.5t57.5 -139.5q0 -61 -30 -100.5t-86 -51.5q117 -27 117 -152q0 -92 -63 -146q-58 -51 -158 -51q-108 0 -168.5 60.5t-69.5 177.5h70q18 -172 168 -172q66 0 103 33.5t37 94.5q0 120 -134 120l-57 1v62h57q64 -1 98.5 32
t34.5 93t-35.5 91.5t-103.5 31.5q-66 0 -104 -31.5t-53 -99.5z" />
    <glyph glyph-name="afii10026" unicode="&#x418;" horiz-adv-x="643" 
d="M557 667v-667h-71v520l-330 -481v-39h-70v667h70v-520l330 481v39h71z" />
    <glyph glyph-name="afii10027" unicode="&#x419;" horiz-adv-x="643" 
d="M192 866h40q24 -77 97 -77q70 0 95 77h40q-7 -61 -43.5 -97t-91.5 -36t-92.5 36.5t-44.5 96.5zM557 667v-667h-71v520l-330 -481v-39h-70v667h70v-520l330 481v39h71z" />
    <glyph glyph-name="afii10028" unicode="&#x41a;" horiz-adv-x="558" 
d="M432 667h91l-272 -315l298 -352h-102l-285 350zM86 667h75v-667h-75v667z" />
    <glyph glyph-name="afii10029" unicode="&#x41b;" horiz-adv-x="584" 
d="M3 -4v63q59 3 78.5 32.5t26.5 127.5l36 448h354v-667h-75v605h-210l-40 -449q-3 -77 -47.5 -119t-122.5 -41z" />
    <glyph glyph-name="afii10030" unicode="&#x41c;" horiz-adv-x="773" 
d="M86 667h113l187 -585l188 585h113v-667h-71v592l-192 -592h-75l-192 592v-592h-71v667z" />
    <glyph glyph-name="afii10031" unicode="&#x41d;" horiz-adv-x="634" 
d="M161 380h313v287h75v-667h-75v318h-313v-318h-75v667h75v-287z" />
    <glyph glyph-name="afii10032" unicode="&#x41e;" horiz-adv-x="646" 
d="M323 679q121 0 196 -95.5t75 -249.5t-75 -249.5t-196 -95.5q-123 0 -197.5 96t-74.5 254q0 149 76 244.5t196 95.5zM323 613q-86 0 -139 -75.5t-53 -199.5q0 -130 52 -206.5t140 -76.5q86 0 138.5 76.5t52.5 202.5t-52.5 202.5t-138.5 76.5z" />
    <glyph glyph-name="afii10033" unicode="&#x41f;" horiz-adv-x="634" 
d="M161 605v-605h-75v667h463v-667h-75v605h-313z" />
    <glyph glyph-name="afii10034" unicode="&#x420;" horiz-adv-x="526" 
d="M86 667h110q131 0 184 -18q55 -18 86.5 -67t31.5 -115q0 -62 -27.5 -108t-76.5 -65q-54 -22 -184 -22h-49v-272h-75v667zM161 337h47q84 0 124 9q42 10 64.5 41.5t22.5 79.5q0 92 -68 119q-41 16 -151 16h-39v-265z" />
    <glyph glyph-name="afii10035" unicode="&#x421;" horiz-adv-x="601" 
d="M547 482h-70q-28 131 -152 131q-89 0 -141.5 -75.5t-52.5 -204.5q0 -130 52 -204.5t143 -74.5q70 0 111.5 44t49.5 128h71q-9 -114 -68.5 -176t-160.5 -62q-128 0 -203 93t-75 250q0 158 75 253t200 95q93 0 150.5 -51.5t70.5 -145.5z" />
    <glyph glyph-name="afii10036" unicode="&#x422;" horiz-adv-x="463" 
d="M21 667h422v-65h-174v-602h-75v602h-173v65z" />
    <glyph glyph-name="afii10037" unicode="&#x423;" horiz-adv-x="494" 
d="M260 289l155 378h79l-294 -667h-75l100 212l-213 455h86z" />
    <glyph glyph-name="afii10038" unicode="&#x424;" horiz-adv-x="697" 
d="M383 667v-67q95 -6 157 -43q123 -75 123 -227q0 -80 -37.5 -142.5t-105.5 -95.5q-57 -28 -137 -32v-60h-70v60q-97 6 -157 43q-123 75 -123 227q0 80 37.5 142t105.5 96q57 28 137 32v67h70zM383 540v-420q70 4 115 32q43 27 68 74.5t25 103.5q0 62 -29 111.5t-80 75.5
q-39 19 -99 23zM313 120v420q-71 -4 -115 -33q-43 -26 -68 -73.5t-25 -103.5q0 -61 29.5 -112t79.5 -75q33 -17 99 -23z" />
    <glyph glyph-name="afii10039" unicode="&#x425;" horiz-adv-x="543" 
d="M32 667h86l154 -256l156 256h86l-198 -318l208 -349h-85l-167 279l-167 -279h-85l209 349z" />
    <glyph glyph-name="afii10040" unicode="&#x426;" horiz-adv-x="636" 
d="M549 62h68v-162h-75v100h-456v667h75v-605h313v605h75v-605z" />
    <glyph glyph-name="afii10041" unicode="&#x427;" horiz-adv-x="569" 
d="M406 0v293q-63 -60 -154 -60q-115 0 -164 74q-16 25 -22 54.5t-6 86.5v219h75v-219q0 -68 16 -96q29 -53 114 -53q97 0 141 66v302h77v-667h-77z" />
    <glyph glyph-name="afii10042" unicode="&#x428;" horiz-adv-x="889" 
d="M482 62h246v605h75v-667h-717v667h75v-605h246v605h75v-605z" />
    <glyph glyph-name="afii10043" unicode="&#x429;" horiz-adv-x="891" 
d="M796 0h-710v667h75v-605h246v605h75v-605h246v605h75v-605h68v-162h-75v100z" />
    <glyph glyph-name="afii10044" unicode="&#x42a;" horiz-adv-x="614" 
d="M0 667h250v-272h74q105 0 159 -22q49 -19 76.5 -65t27.5 -108q0 -66 -31.5 -115t-86.5 -67q-53 -18 -184 -18h-110v602h-175v65zM250 330v-265h39q110 0 151 16q68 27 68 119q0 64 -38 97t-112 33h-108z" />
    <glyph glyph-name="afii10045" unicode="&#x42b;" horiz-adv-x="732" 
d="M86 0v667h75v-272h74q105 0 159 -22q49 -19 76.5 -65t27.5 -108q0 -66 -31.5 -115t-86.5 -67q-53 -18 -184 -18h-110zM161 330v-265h39q110 0 151 16q68 27 68 119q0 64 -38 97t-112 33h-108zM647 0h-77v667h77v-667z" />
    <glyph glyph-name="afii10046" unicode="&#x42c;" horiz-adv-x="524" 
d="M86 0v667h75v-272h74q105 0 159 -22q49 -19 76.5 -65t27.5 -108q0 -66 -31.5 -115t-86.5 -67q-53 -18 -184 -18h-110zM161 330v-265h39q110 0 151 16q68 27 68 119q0 64 -38 97t-112 33h-108z" />
    <glyph glyph-name="afii10047" unicode="&#x42d;" horiz-adv-x="605" 
d="M234 365h239q-8 116 -59 182t-134 66q-124 0 -152 -131h-70q12 94 70 145.5t151 51.5q125 0 200 -94.5t75 -252.5t-75 -251t-203 -93q-101 0 -160.5 62t-68.5 176h70q9 -84 50.5 -128t111.5 -44q85 0 136 65.5t58 183.5h-239v62z" />
    <glyph glyph-name="afii10048" unicode="&#x42e;" horiz-adv-x="875" 
d="M161 380h122q10 135 84.5 217t185.5 82q121 0 196 -95.5t75 -249.5t-75 -249.5t-196 -95.5q-118 0 -192 89.5t-80 239.5h-120v-318h-75v667h75v-287zM553 613q-86 0 -139 -75.5t-53 -199.5q0 -130 52 -206.5t140 -76.5q86 0 138.5 76.5t52.5 202.5t-52.5 202.5
t-138.5 76.5z" />
    <glyph glyph-name="afii10049" unicode="&#x42f;" horiz-adv-x="561" 
d="M475 667v-667h-75v285h-116l-168 -285h-90l175 297q-137 50 -137 181q0 59 29 103.5t79 64.5q54 21 185 21h118zM400 350v252h-45q-72 0 -99 -3t-50 -13q-63 -27 -63 -107q0 -89 75 -116q37 -13 135 -13h47z" />
    <glyph glyph-name="afii10065" unicode="&#x430;" horiz-adv-x="476" 
d="M132 350h-69q8 67 53 102t124 35q58 0 98.5 -20.5t53.5 -57.5q11 -29 11 -106v-178q-1 -86 13 -125h-67q-7 22 -11 64q-42 -76 -139 -76q-70 0 -111.5 37.5t-41.5 99.5q0 101 110 142q59 22 178 42v20q0 53 -22 75.5t-75 22.5q-90 0 -105 -77zM334 210v47
q-119 -21 -167.5 -49.5t-48.5 -77.5q0 -37 25.5 -60t66.5 -23q71 0 105 56q19 34 19 107z" />
    <glyph glyph-name="afii10066" unicode="&#x431;" horiz-adv-x="506" 
d="M418 670v-62q-19 -14 -52 -14q-12 0 -34 5q-35 7 -60 7q-68 0 -104 -63q-29 -52 -39 -133q53 77 140 77q86 0 139.5 -68.5t53.5 -178.5q0 -112 -57.5 -182t-149.5 -70q-84 0 -140 59q-36 38 -52 91t-16 136q0 212 72 316q54 78 147 78q15 0 78 -8q16 -3 31 -3q23 0 43 13
zM261 427q-62 0 -101.5 -52t-39.5 -135q0 -87 37 -139.5t98 -52.5t98 52t37 138t-35.5 137.5t-93.5 51.5z" />
    <glyph glyph-name="afii10067" unicode="&#x432;" horiz-adv-x="435" 
d="M143 213v-156h72q57 0 83.5 19t26.5 59q0 59 -54 74q-16 4 -57 4h-71zM143 417v-148h66q103 0 103 79q0 45 -37 61q-20 8 -60 8h-72zM73 474h152q71 0 106 -22q51 -34 51 -99q0 -81 -72 -110q84 -27 84 -109q0 -76 -65 -113q-32 -21 -106 -21h-150v474z" />
    <glyph glyph-name="afii10068" unicode="&#x433;" horiz-adv-x="352" 
d="M143 417v-417h-70v474h272v-57h-202z" />
    <glyph glyph-name="afii10069" unicode="&#x434;" horiz-adv-x="483" 
d="M119 474h290v-417h63v-157h-70v100h-329v-100h-70v157h9q26 0 46.5 14.5t28.5 38.5q8 25 14 111zM136 57h203v360h-151l-13 -190q-5 -75 -12.5 -109.5t-26.5 -60.5z" />
    <glyph glyph-name="afii10070" unicode="&#x435;" horiz-adv-x="486" 
d="M440 225h-323q2 -86 37 -131.5t100 -45.5q39 0 64.5 16.5t45.5 55.5l65 -8q-44 -124 -176 -124q-95 0 -151.5 66t-56.5 178q0 116 55.5 185.5t148.5 69.5q88 0 140 -66t52 -176q0 -11 -1 -20zM119 280h249q-6 72 -37.5 110t-84.5 38q-106 0 -127 -148z" />
    <glyph glyph-name="afii10072" unicode="&#x436;" horiz-adv-x="588" 
d="M260 474h68v-194h34l144 194h78l-163 -216l170 -258h-78l-145 223h-40v-223h-68v223h-40l-145 -223h-78l170 258l-163 216h78l144 -194h34v194z" />
    <glyph glyph-name="afii10073" unicode="&#x437;" horiz-adv-x="450" 
d="M118 320h-69q5 67 38 108q46 60 141 60q74 0 118 -37.5t44 -100.5q0 -81 -81 -111q91 -23 91 -111q0 -64 -47.5 -102t-126.5 -38q-169 0 -181 175h70q6 -61 31.5 -88t76.5 -27q50 0 78 22t28 62t-25 59t-79 19q-22 0 -40 -1v57h21q55 0 84 21t29 60q0 37 -25 59t-68 22
q-50 0 -74 -24t-34 -84z" />
    <glyph glyph-name="afii10074" unicode="&#x438;" horiz-adv-x="507" 
d="M364 474h70v-474h-70v342l-221 -312v-30h-70v474h70v-342l221 312v30z" />
    <glyph glyph-name="afii10075" unicode="&#x439;" horiz-adv-x="507" 
d="M141 682h41q10 -37 32 -57.5t51 -20.5q60 0 81 78h41q-6 -62 -38.5 -98.5t-82.5 -36.5q-51 0 -85 36.5t-40 98.5zM364 474h70v-474h-70v342l-221 -312v-30h-70v474h70v-342l221 312v30z" />
    <glyph glyph-name="afii10076" unicode="&#x43a;" horiz-adv-x="471" 
d="M344 474h85l-198 -213l213 -261h-97l-203 258zM73 474h70v-474h-70v474z" />
    <glyph glyph-name="afii10077" unicode="&#x43b;" horiz-adv-x="470" 
d="M396 474v-474h-70v417h-151l-13 -192q-4 -122 -39 -172t-120 -55v56q48 8 64 39t21 125l18 256h290z" />
    <glyph glyph-name="afii10078" unicode="&#x43c;" horiz-adv-x="628" 
d="M314 73l135 402h105v-475h-68v405l-136 -405h-73l-136 405v-405h-68v475h105z" />
    <glyph glyph-name="afii10079" unicode="&#x43d;" horiz-adv-x="507" 
d="M364 223h-221v-223h-70v474h70v-194h221v194h70v-474h-70v223z" />
    <glyph glyph-name="afii10080" unicode="&#x43e;" horiz-adv-x="504" 
d="M252 487q92 0 149.5 -69.5t57.5 -180.5q0 -110 -58 -179.5t-149 -69.5q-92 0 -149.5 70t-57.5 183q0 107 58 176.5t149 69.5zM252 427q-60 0 -97.5 -52t-37.5 -135q0 -87 37 -139.5t98 -52.5t98 52t37 138q0 85 -37 137t-98 52z" />
    <glyph glyph-name="afii10081" unicode="&#x43f;" horiz-adv-x="507" 
d="M364 417h-221v-417h-70v474h361v-474h-70v417z" />
    <glyph glyph-name="afii10082" unicode="&#x440;" horiz-adv-x="508" 
d="M73 -197v530q-1 108 -9 141h69q7 -24 8 -70q49 83 134 83t136.5 -69t51.5 -182q0 -112 -50.5 -180t-132.5 -68q-86 0 -137 78v-263h-70zM270 426q-58 0 -93 -52t-35 -137q0 -84 35.5 -136t92.5 -52t89 49.5t32 135.5q0 88 -33 140t-88 52z" />
    <glyph glyph-name="afii10083" unicode="&#x441;" horiz-adv-x="465" 
d="M416 320h-69q-10 58 -33.5 82.5t-69.5 24.5q-59 0 -93 -50.5t-34 -139.5t34 -139t95 -50q47 0 72.5 28t31.5 87h70q-7 -85 -51.5 -130t-122.5 -45q-91 0 -146 67.5t-55 180.5q0 115 54.5 183t146.5 68q75 0 118.5 -43t51.5 -124z" />
    <glyph glyph-name="afii10084" unicode="&#x442;" horiz-adv-x="367" 
d="M364 474v-58h-143v-416h-74v416h-144v58h361z" />
    <glyph glyph-name="afii10085" unicode="&#x443;" horiz-adv-x="438" 
d="M16 474h75l128 -395l134 395h73l-156 -441q-33 -94 -47 -123t-37 -54q-51 -56 -138 -56q-12 0 -21 1v62q68 -1 97 24t57 108z" />
    <glyph glyph-name="afii10086" unicode="&#x444;" horiz-adv-x="663" 
d="M366 669v-237q30 55 97 55q72 0 114 -65.5t42 -178.5q0 -115 -44 -185.5t-116 -70.5q-60 0 -93 53v-237h-70v237q-33 -53 -93 -53q-72 0 -116 70.5t-44 185.5q0 113 42 178.5t114 65.5q67 0 97 -55v237h70zM212 428q-44 0 -70.5 -52.5t-26.5 -138.5q0 -87 27 -139t71 -52
q83 0 83 181q0 105 -20 153t-64 48zM450 428q-44 0 -64 -48t-20 -153q0 -181 83 -181q44 0 71 52t27 139q0 86 -26.5 138.5t-70.5 52.5z" />
    <glyph glyph-name="afii10087" unicode="&#x445;" horiz-adv-x="441" 
d="M31 474h81l109 -169l110 169h85l-152 -222l171 -252h-84l-130 196l-131 -196h-84l173 252z" />
    <glyph glyph-name="afii10088" unicode="&#x446;" horiz-adv-x="508" 
d="M427 0h-354v474h70v-417h221v417h70v-417h63v-157h-70v100z" />
    <glyph glyph-name="afii10089" unicode="&#x447;" horiz-adv-x="465" 
d="M322 0v194q-53 -43 -128 -43q-147 0 -147 157v166h70v-143q0 -54 10 -75q20 -45 76 -45q38 0 70 18t49 50v195h70v-474h-70z" />
    <glyph glyph-name="afii10090" unicode="&#x448;" horiz-adv-x="725" 
d="M582 57v417h70v-474h-579v474h70v-417h184v417h70v-417h185z" />
    <glyph glyph-name="afii10091" unicode="&#x449;" horiz-adv-x="726" 
d="M645 0h-572v474h70v-417h184v417h70v-417h185v417h70v-417h63v-157h-70v100z" />
    <glyph glyph-name="afii10092" unicode="&#x44a;" horiz-adv-x="450" 
d="M196 474v-194h55q73 0 112 -16q35 -13 54.5 -45.5t19.5 -76.5q0 -47 -22.5 -81.5t-61.5 -47.5q-36 -13 -130 -13h-97v417h-126v57h196zM196 224v-167h35q69 0 94 10q43 18 43 75q0 82 -93 82h-79z" />
    <glyph glyph-name="afii10093" unicode="&#x44b;" horiz-adv-x="600" 
d="M456 474h70v-474h-70v474zM73 0v474h70v-194h55q73 0 112 -16q35 -13 54.5 -45.5t19.5 -76.5q0 -47 -22.5 -81.5t-61.5 -47.5q-36 -13 -130 -13h-97zM143 224v-167h35q69 0 94 10q43 18 43 75q0 82 -93 82h-79z" />
    <glyph glyph-name="afii10094" unicode="&#x44c;" horiz-adv-x="398" 
d="M73 0v474h70v-194h55q73 0 112 -16q35 -13 54.5 -45.5t19.5 -76.5q0 -47 -22.5 -81.5t-61.5 -47.5q-36 -13 -130 -13h-97zM143 224v-167h35q69 0 94 10q43 18 43 75q0 82 -93 82h-79z" />
    <glyph glyph-name="afii10095" unicode="&#x44d;" horiz-adv-x="465" 
d="M186 266h161q-6 77 -39 119t-87 42q-46 0 -69.5 -24.5t-33.5 -82.5h-69q8 81 51.5 124t118.5 43q92 0 146.5 -68t54.5 -183q0 -113 -55 -180.5t-146 -67.5q-78 0 -123 45t-51 130h70q6 -59 31 -87t73 -28q56 0 89 41.5t39 119.5h-161v57z" />
    <glyph glyph-name="afii10096" unicode="&#x44e;" horiz-adv-x="690" 
d="M143 280h91q13 97 67.5 152t136.5 55q91 0 149 -70t58 -180t-57.5 -179.5t-149.5 -69.5q-88 0 -145 65t-61 170h-89v-223h-70v474h70v-194zM439 427q-60 0 -97.5 -52t-37.5 -135q0 -87 37 -139.5t98 -52.5q60 0 97 52t37 137t-37 137.5t-97 52.5z" />
    <glyph glyph-name="afii10097" unicode="&#x44f;" horiz-adv-x="451" 
d="M39 0l109 199q-95 26 -95 130q0 75 52 115q39 30 120 30h152v-474h-70v194h-87l-105 -194h-76zM307 250v167h-74q-58 0 -84 -20.5t-26 -64.5t23 -63t77 -19h84z" />
    <glyph glyph-name="uni0450" unicode="&#x450;" horiz-adv-x="486" 
d="M440 225h-323q2 -86 37 -131.5t100 -45.5q39 0 64.5 16.5t45.5 55.5l65 -8q-44 -124 -176 -124q-95 0 -151.5 66t-56.5 178q0 116 55.5 185.5t148.5 69.5q88 0 140 -66t52 -176q0 -11 -1 -20zM119 280h249q-6 72 -37.5 110t-84.5 38q-106 0 -127 -148zM312 547h-58
l-146 137h101z" />
    <glyph glyph-name="afii10071" unicode="&#x451;" horiz-adv-x="486" 
d="M440 225h-323q2 -86 37 -131.5t100 -45.5q39 0 64.5 16.5t45.5 55.5l65 -8q-44 -124 -176 -124q-95 0 -151.5 66t-56.5 178q0 116 55.5 185.5t148.5 69.5q88 0 140 -66t52 -176q0 -11 -1 -20zM119 280h249q-6 72 -37.5 110t-84.5 38q-106 0 -127 -148zM165 672
q22 0 37 -15.5t15 -36.5q0 -22 -15 -37.5t-37 -15.5t-37.5 15.5t-15.5 36.5q0 23 15 38t38 15zM335 672q22 0 37 -15.5t15 -36.5q0 -22 -15 -37.5t-37 -15.5t-37.5 15.5t-15.5 36.5q0 23 15 38t38 15z" />
    <glyph glyph-name="afii10099" unicode="&#x452;" horiz-adv-x="502" 
d="M230 -187v62h9h7q63 1 90.5 25.5t24.5 76.5v22l1 269q0 61 -6 87q-6 32 -30.5 51t-60.5 19q-67 0 -100 -57q-22 -37 -22 -107v-261h-70v548h-54v57h54v65h70v-65h139v-57h-139v-130q52 69 136 69q89 0 129 -62q14 -22 18.5 -51.5t4.5 -101.5v-272q0 -63 -10 -96.5
t-36 -53.5q-44 -37 -131 -37h-12h-12z" />
    <glyph glyph-name="afii10100" unicode="&#x453;" horiz-adv-x="352" 
d="M143 417v-417h-70v474h272v-57h-202zM163 547l104 137h100l-145 -137h-59z" />
    <glyph glyph-name="afii10101" unicode="&#x454;" horiz-adv-x="465" 
d="M118 266h161v-57h-161q6 -78 39 -119.5t89 -41.5q48 0 73 28t31 87h70q-7 -85 -51.5 -130t-122.5 -45q-91 0 -146 67.5t-55 180.5q0 115 54.5 183t146.5 68q75 0 118.5 -43t51.5 -124h-69q-10 58 -33.5 82.5t-69.5 24.5q-54 0 -87 -42t-39 -119z" />
    <glyph glyph-name="afii10102" unicode="&#x455;" horiz-adv-x="438" 
d="M387 344h-68q-10 85 -97 85q-40 0 -65.5 -19.5t-25.5 -51.5q0 -29 21 -44.5t89 -35.5q100 -29 125 -58q29 -32 29 -84q0 -68 -46.5 -108t-125.5 -40q-86 0 -132.5 41t-46.5 118h68q9 -100 110 -100q46 0 73.5 22.5t27.5 60.5q0 37 -30 56q-17 10 -106 38q-69 21 -98 50.5
t-29 78.5q0 60 45 97t118 37q76 0 118 -37t46 -106z" />
    <glyph glyph-name="afii10103" unicode="&#x456;" horiz-adv-x="221" 
d="M73 474h74v-474h-74v474zM111 676q22 0 36 -14.5t14 -37.5q0 -22 -14.5 -36t-36.5 -14t-36.5 14t-14.5 36t14.5 37t37.5 15z" />
    <glyph glyph-name="afii10104" unicode="&#x457;" horiz-adv-x="220" 
d="M73 474h74v-474h-74v474zM41 672q22 0 37 -15.5t15 -36.5q0 -22 -15 -37.5t-37 -15.5t-37.5 15.5t-15.5 36.5q0 23 15 38t38 15zM180 672q22 0 37 -15.5t15 -36.5q0 -22 -15 -37.5t-37 -15.5t-37.5 15.5t-15.5 36.5q0 23 15.5 38t37.5 15z" />
    <glyph glyph-name="afii10105" unicode="&#x458;" horiz-adv-x="251" 
d="M105 474h74v-433q0 -80 -6.5 -113.5t-26.5 -58.5q-43 -56 -149 -56h-12h-12v62h9h7q75 3 96.5 33.5t19.5 132.5v433zM143 676q22 0 36 -14.5t14 -37.5q0 -22 -14.5 -36t-36.5 -14t-36.5 14t-14.5 36t14.5 37t37.5 15z" />
    <glyph glyph-name="afii10106" unicode="&#x459;" horiz-adv-x="651" 
d="M326 0v417h-151l-13 -192q-5 -122 -39.5 -172t-119.5 -55v57q48 8 64 38.5t21 125.5l18 255h290v-194h55q73 0 112 -16q35 -13 54.5 -45.5t19.5 -76.5q0 -47 -22.5 -81.5t-61.5 -47.5q-36 -13 -130 -13h-97zM396 224v-167h35q69 0 94 10q43 18 43 75q0 82 -93 82h-79z
" />
    <glyph glyph-name="afii10107" unicode="&#x45a;" horiz-adv-x="689" 
d="M364 0v223h-221v-223h-70v474h70v-194h221v194h70v-194h55q73 0 112 -16q35 -14 54.5 -46.5t19.5 -75.5q0 -47 -22.5 -81.5t-61.5 -47.5q-36 -13 -130 -13h-97zM434 223v-166h35q69 0 94 10q43 18 43 74q0 82 -93 82h-79z" />
    <glyph glyph-name="afii10108" unicode="&#x45b;" horiz-adv-x="502" 
d="M73 670h70v-65h139v-57h-139v-130q50 69 136 69q89 0 129 -62q14 -22 18.5 -51.5t4.5 -101.5v-272h-70v268q0 83 -13 110q-24 47 -83 47q-67 0 -100 -57q-22 -37 -22 -107v-261h-70v548h-54v57h54v65z" />
    <glyph glyph-name="afii10109" unicode="&#x45c;" horiz-adv-x="471" 
d="M344 474h85l-198 -213l213 -261h-97l-203 258zM73 474h70v-474h-70v474zM204 547l103 137h101l-146 -137h-58z" />
    <glyph glyph-name="uni045D" unicode="&#x45d;" horiz-adv-x="507" 
d="M312 547h-59l-145 137h100zM364 474h70v-474h-70v342l-221 -312v-30h-70v474h70v-342l221 312v30z" />
    <glyph glyph-name="afii10110" unicode="&#x45e;" horiz-adv-x="438" 
d="M16 474h75l128 -395l134 395h73l-156 -441q-33 -94 -47 -123t-37 -54q-51 -56 -138 -56q-12 0 -21 1v62q68 -1 97 24t57 108zM106 682h41q21 -78 83 -78q60 0 81 78h41q-6 -62 -38.5 -98.5t-82.5 -36.5q-51 0 -85 36.5t-40 98.5z" />
    <glyph glyph-name="afii10193" unicode="&#x45f;" horiz-adv-x="507" 
d="M219 0h-146v474h70v-417h221v417h70v-474h-145v-100h-70v100z" />
    <glyph glyph-name="uni0462" unicode="&#x462;" horiz-adv-x="524" 
d="M161 506v-111h74q105 0 159 -22q49 -19 76.5 -65t27.5 -108q0 -66 -31.5 -115t-86.5 -67q-53 -18 -184 -18h-110v506h-58v61h58v100h75v-100h187v-61h-187zM161 330v-265h39q110 0 151 16q68 27 68 119q0 64 -38 97t-112 33h-108z" />
    <glyph glyph-name="uni0463" unicode="&#x463;" horiz-adv-x="398" 
d="M143 473v-193h55q73 0 112 -16q35 -13 54.5 -45.5t19.5 -76.5q0 -47 -22.5 -81.5t-61.5 -47.5q-38 -13 -130 -13h-97v473h-78v54h78v138h70v-138h155v-54h-155zM143 224v-167h35q69 0 94 10q43 18 43 75q0 82 -94 82h-78z" />
    <glyph glyph-name="uni0472" unicode="&#x472;" horiz-adv-x="646" 
d="M323 679q121 0 196 -95.5t75 -249.5t-75 -249.5t-196 -95.5q-123 0 -197.5 96t-74.5 254q0 149 76 244.5t196 95.5zM134 389l13 3l19 5q32 8 60 8q58 0 104 -31l39 -26q23 -16 62 -16q35 0 83 12q-2 123 -54 196t-137 73q-76 0 -127.5 -61t-61.5 -163zM145 320l-14 -3
q5 -122 56.5 -192t135.5 -70q76 0 124.5 56.5t63.5 161.5q-66 -19 -102 -19q-26 0 -42 6.5t-61 35.5q-46 31 -108 31q-22 0 -45 -5z" />
    <glyph glyph-name="uni0473" unicode="&#x473;" horiz-adv-x="495" 
d="M294 484q77 0 121.5 -49t44.5 -133q0 -63 -22.5 -125.5t-62.5 -108.5q-69 -79 -165 -79q-79 0 -125 49t-46 133q0 66 26 133t69 112q66 68 160 68zM369 265l18 8q2 22 2 30q0 57 -27 89t-74 32q-51 0 -93 -39.5t-66 -111.5q46 23 72 23q24 0 57 -29q29 -25 47 -25
q14 0 64 23zM375 213l-24 -10q-50 -23 -66 -23q-18 0 -43 24q-32 29 -59 29q-21 0 -69 -20q-3 -27 -3 -45q0 -55 27.5 -87t73.5 -32q53 0 96.5 43.5t66.5 120.5z" />
    <glyph glyph-name="uni0474" unicode="&#x474;" horiz-adv-x="561" 
d="M311 -4h-69l-229 671h79l190 -580l156 484q18 55 46 78.5t74 23.5q27 0 52 -10v-65q-15 7 -32 7q-53 0 -73 -57z" />
    <glyph glyph-name="uni0475" unicode="&#x475;" horiz-adv-x="431" 
d="M252 -6h-74l-168 480h73l133 -398l106 325q27 86 106 86q21 0 43 -6v-56q-12 4 -22 4q-25 0 -39.5 -13t-25.5 -45z" />
    <glyph glyph-name="afii10050" unicode="&#x490;" horiz-adv-x="468" 
d="M448 749v-147h-285v-602h-77v667h287v82h75z" />
    <glyph glyph-name="afii10098" unicode="&#x491;" horiz-adv-x="352" 
d="M275 474v55h70v-112h-202v-417h-70v474h202z" />
    <glyph glyph-name="uni0492" unicode="&#x492;" horiz-adv-x="487" 
d="M161 378h174v-65h-174v-313h-75v313h-73v65h73v289h367v-65h-292v-224z" />
    <glyph glyph-name="uni0493" unicode="&#x493;" horiz-adv-x="352" 
d="M143 311h130v-52h-130v-259h-70v259h-55v52h55v163h272v-57h-202v-106z" />
    <glyph glyph-name="uni0496" unicode="&#x496;" horiz-adv-x="777" 
d="M751 45h75v-162h-75v117h-57l-223 318h-47v-318h-73v318h-47l-223 -318h-88l253 352l-240 315h84l215 -287h46v287h73v-287h46l215 287h85l-241 -315z" />
    <glyph glyph-name="uni0497" unicode="&#x497;" horiz-adv-x="588" 
d="M561 0h-48l-145 223h-40v-223h-68v223h-40l-145 -223h-78l170 258l-163 216h78l144 -194h34v194h68v-194h34l144 194h79l-164 -216l143 -216h67v-157h-70v115z" />
    <glyph glyph-name="uni049A" unicode="&#x49a;" horiz-adv-x="558" 
d="M509 46v1h75v-162h-75v115h-63l-284 350l270 317h90l-272 -316zM86 667h75v-667h-75v667z" />
    <glyph glyph-name="uni049B" unicode="&#x49b;" horiz-adv-x="470" 
d="M408 44h69v-157h-70v113h-60l-203 259l200 215h84l-197 -213zM73 474h70v-474h-70v474z" />
    <glyph glyph-name="uni049C" unicode="&#x49c;" horiz-adv-x="558" 
d="M247 244v-77h-52v142l-33 41l33 39v137h52v-76l185 217h90l-272 -315l298 -352h-102zM86 667h75v-667h-75v667z" />
    <glyph glyph-name="uni049D" unicode="&#x49d;" horiz-adv-x="471" 
d="M224 156v-46h-52v113l-28 35l28 30v110h52v-53l120 129h84l-197 -213l212 -261h-96zM73 474h70v-474h-70v474z" />
    <glyph glyph-name="uni04A2" unicode="&#x4a2;" horiz-adv-x="634" 
d="M549 51h74v-162h-75v111h-74v318h-313v-318h-75v667h75v-287h313v287h75v-616z" />
    <glyph glyph-name="uni04A3" unicode="&#x4a3;" horiz-adv-x="507" 
d="M433 0h-69v223h-221v-223h-70v474h70v-194h221v194h70v-427h69v-157h-70v110z" />
    <glyph glyph-name="uni04AE" unicode="&#x4ae;" horiz-adv-x="512" 
d="M12 667h86l160 -312l157 312h86l-208 -387l1 -280h-75l1 280z" />
    <glyph glyph-name="uni04AF" unicode="&#x4af;" horiz-adv-x="438" 
d="M257 -3v-194h-77v194l-164 477h75l128 -395l134 395h73z" />
    <glyph glyph-name="uni04B0" unicode="&#x4b0;" horiz-adv-x="512" 
d="M293 241h104v-52h-104l1 -189h-75l1 189h-105v52h105v39l-208 387h86l159 -312l158 312h86l-209 -387z" />
    <glyph glyph-name="uni04B1" unicode="&#x4b1;" horiz-adv-x="438" 
d="M180 -18v15l-164 477h75l129 -395l133 395h73l-169 -477v-15h108v-52h-108v-127h-77v127h-103v52h103z" />
    <glyph glyph-name="uni04B2" unicode="&#x4b2;" horiz-adv-x="543" 
d="M495 47h75v-162h-75v115h-57l-167 279l-167 -279h-85l209 349l-197 318h86l154 -256l156 256h86l-198 -318z" />
    <glyph glyph-name="uni04B3" unicode="&#x4b3;" horiz-adv-x="441" 
d="M402 48v1h70v-157h-70v108h-52l-130 196l-131 -196h-84l173 252l-148 222h81l109 -169l110 169h85l-152 -222z" />
    <glyph glyph-name="uni04B6" unicode="&#x4b6;" horiz-adv-x="569" 
d="M458 0h-52v293q-63 -60 -154 -60q-115 0 -164 74q-16 25 -22 54.5t-6 86.5v219h75v-219q0 -68 16 -96q29 -53 114 -53q99 0 141 66v302h77v-615h48v-165h-73v113z" />
    <glyph glyph-name="uni04B7" unicode="&#x4b7;" horiz-adv-x="465" 
d="M364 0h-42v194q-53 -43 -128 -43q-147 0 -147 157v166h70v-143q0 -54 10 -75q20 -45 76 -45q38 0 70 18t49 50v195h70v-427h47v-162h-75v115z" />
    <glyph glyph-name="uni04B8" unicode="&#x4b8;" horiz-adv-x="569" 
d="M289 451v-151q85 6 123 65v302h77v-667h-77v293q-21 -23 -56 -39.5t-67 -19.5v-136h-52v136q-180 11 -171 214v219h75v-219q-2 -69 20.5 -104t75.5 -43v150h52z" />
    <glyph glyph-name="uni04B9" unicode="&#x4b9;" horiz-adv-x="465" 
d="M238 339v-124q59 14 86 64v195h70v-474h-70v194q-34 -28 -86 -39v-123h-52v119q-140 9 -137 158v165h70v-142q-1 -57 14 -84.5t53 -35.5v127h52z" />
    <glyph glyph-name="uni04BA" unicode="&#x4ba;" horiz-adv-x="556" 
d="M150 667v-293q63 60 154 60q115 0 164 -74q16 -25 22 -54.5t6 -86.5v-219h-75v219q0 68 -16 96q-29 53 -114 53q-97 0 -141 -66v-302h-77v667h77z" />
    <glyph glyph-name="uni04BB" unicode="&#x4bb;" horiz-adv-x="502" 
d="M73 670h70v-252q51 69 136 69q89 0 129 -62q14 -22 18.5 -51.5t4.5 -101.5v-272h-70v268q0 83 -13 110q-24 47 -84 47q-66 0 -99 -57q-22 -37 -22 -107v-261h-70v670z" />
    <glyph glyph-name="uni04C0" unicode="&#x4c0;" horiz-adv-x="246" 
d="M162 0h-77v667h77v-667z" />
    <glyph glyph-name="uni04CF" unicode="&#x4cf;" horiz-adv-x="246" 
d="M162 0h-77v667h77v-667z" />
    <glyph glyph-name="uni04D8" unicode="&#x4d8;" horiz-adv-x="647" 
d="M51 358l469 -1q-11 70 -17 95t-20 51q-57 110 -159 110q-52 0 -96 -31.5t-63 -81.5l-69 35q30 64 93 104t134 40q57 0 108 -24t83 -65q38 -48 59.5 -118.5t21.5 -145.5q0 -148 -76 -242.5t-195 -94.5q-57 0 -108.5 24t-82.5 65q-35 45 -52 104t-30 176zM519 305h-389
q3 -64 36 -138q48 -112 158 -112q114 0 169 132q23 58 26 118z" />
    <glyph glyph-name="afii10846" unicode="&#x4d9;" horiz-adv-x="486" 
d="M45 250h324q-3 86 -38 131.5t-99 45.5q-40 0 -65.5 -16.5t-44.5 -55.5l-65 8q42 124 176 124q95 0 151.5 -66t56.5 -178q0 -116 -55.5 -185.5t-148.5 -69.5q-87 0 -139.5 66t-52.5 176v20zM367 195h-249q6 -72 37.5 -110t84.5 -38q106 0 127 148z" />
    <glyph glyph-name="uni04E2" unicode="&#x4e2;" 
d="M106 826h288v-52h-288v52zM485 667v-667h-71v520l-330 -481v-39h-70v667h70v-520l330 481v39h71z" />
    <glyph glyph-name="uni04E3" unicode="&#x4e3;" 
d="M114 644h273v-53h-273v53zM361 474h70v-474h-70v342l-221 -312v-30h-70v474h70v-342l221 312v30z" />
    <glyph glyph-name="uni04E8" unicode="&#x4e8;" horiz-adv-x="646" 
d="M323 679q121 0 196 -95.5t75 -249.5t-75 -249.5t-196 -95.5q-120 0 -196 95t-76 245q0 157 75 253.5t197 96.5zM131 353h383q-4 120 -56 190t-135 70t-135 -70t-57 -190zM513 301h-381q9 -117 59 -181.5t132 -64.5q81 0 131 64.5t59 181.5z" />
    <glyph glyph-name="uni04E9" unicode="&#x4e9;" horiz-adv-x="504" 
d="M252 487q91 0 149 -70t58 -180t-57.5 -179.5t-149.5 -69.5q-91 0 -149 69.5t-58 176.5q0 113 57.5 183t149.5 70zM118 264h268q-6 74 -42.5 118.5t-91.5 44.5t-91.5 -44.5t-42.5 -118.5zM386 212h-268q6 -75 42.5 -119.5t91.5 -44.5t91.5 44.5t42.5 119.5z" />
    <glyph glyph-name="uni04EE" unicode="&#x4ee;" 
d="M106 826h288v-52h-288v52zM263 289l155 378h79l-294 -667h-75l100 212l-213 455h86z" />
    <glyph glyph-name="uni04EF" unicode="&#x4ef;" 
d="M113 644h273v-53h-273v53zM47 474h75l128 -395l134 395h73l-156 -441q-33 -94 -47 -123t-37 -54q-51 -56 -138 -56q-12 0 -21 1v62q68 -1 97 24t57 108z" />
    <glyph glyph-name="uni1E1E" unicode="&#x1e1e;" horiz-adv-x="487" 
d="M161 378h270v-65h-270v-313h-75v667h366v-65h-291v-224zM270 862q26 0 44 -18t18 -44t-18 -44.5t-44 -18.5t-44.5 18t-18.5 44t18.5 44.5t44.5 18.5z" />
    <glyph glyph-name="Wgrave" unicode="&#x1e80;" horiz-adv-x="777" 
d="M18 667h71l129 -568l139 568h64l139 -568l130 568h70l-159 -671h-81l-132 521l-131 -521h-81zM442 731h-72l-167 137h101z" />
    <glyph glyph-name="wgrave" unicode="&#x1e81;" horiz-adv-x="661" 
d="M15 474h72l102 -376l111 376h60l111 -376l102 376h72l-137 -480h-69l-109 372l-110 -372h-68zM383 547h-58l-145 137h100z" />
    <glyph glyph-name="Wacute" unicode="&#x1e82;" horiz-adv-x="777" 
d="M18 667h71l129 -568l139 568h64l139 -568l130 568h70l-159 -671h-81l-132 521l-131 -521h-81zM344 731l138 137h100l-166 -137h-72z" />
    <glyph glyph-name="wacute" unicode="&#x1e83;" horiz-adv-x="661" 
d="M15 474h72l102 -376l111 376h60l111 -376l102 376h72l-137 -480h-69l-109 372l-110 -372h-68zM291 547l103 137h100l-145 -137h-58z" />
    <glyph glyph-name="Wdieresis" unicode="&#x1e84;" horiz-adv-x="777" 
d="M17 667h71l129 -568l139 568h64l139 -568l130 568h70l-159 -671h-81l-132 521l-131 -521h-81zM300 857q23 0 39.5 -17t16.5 -40t-16.5 -40t-39.5 -17q-24 0 -40.5 17t-16.5 40q0 24 16.5 40.5t40.5 16.5zM478 857q23 0 39.5 -17t16.5 -40t-16.5 -40t-39.5 -17
q-24 0 -40.5 17t-16.5 40q0 24 16.5 40.5t40.5 16.5z" />
    <glyph glyph-name="wdieresis" unicode="&#x1e85;" horiz-adv-x="661" 
d="M15 474h72l102 -376l111 376h60l111 -376l102 376h72l-137 -480h-69l-109 372l-110 -372h-68zM245 672q22 0 37 -15.5t15 -36.5q0 -22 -15 -37.5t-37 -15.5t-37.5 15.5t-15.5 36.5q0 23 15 38t38 15zM416 672q22 0 37 -15.5t15 -36.5q0 -22 -15 -37.5t-37 -15.5
t-37.5 15.5t-15.5 36.5q0 23 15.5 38t37.5 15z" />
    <glyph glyph-name="uni1EA0" unicode="&#x1ea0;" horiz-adv-x="566" 
d="M250 671h65l230 -671h-78l-59 177h-251l-60 -177h-77zM387 242l-105 332l-105 -332h210zM283 -76q25 0 43.5 -18t18.5 -44t-18 -44.5t-44 -18.5t-44.5 18t-18.5 44t18.5 44.5t44.5 18.5z" />
    <glyph glyph-name="uni1EA1" unicode="&#x1ea1;" horiz-adv-x="476" 
d="M132 350h-69q8 67 53 102t124 35q58 0 98.5 -20.5t53.5 -57.5q11 -29 11 -106v-178q-1 -86 13 -125h-67q-7 22 -11 64q-42 -76 -139 -76q-70 0 -111.5 37.5t-41.5 99.5q0 101 110 142q59 22 178 42v20q0 53 -22 75.5t-75 22.5q-90 0 -105 -77zM334 210v47
q-119 -21 -167.5 -49.5t-48.5 -77.5q0 -37 25.5 -60t66.5 -23q71 0 105 56q19 34 19 107zM238 -76q26 0 44 -18t18 -44t-18 -44.5t-44 -18.5t-44.5 18t-18.5 44t18.5 44.5t44.5 18.5z" />
    <glyph glyph-name="uni1EA2" unicode="&#x1ea2;" horiz-adv-x="566" 
d="M250 671h65l230 -671h-78l-59 177h-251l-60 -177h-77zM387 242l-105 332l-105 -332h210zM267 726l-1 72h15q73 0 73 50q0 23 -16 37t-43 14q-20 0 -56 -14v43q48 18 80 18q47 0 76 -25.5t29 -65.5q0 -45 -37 -68q-27 -18 -81 -18v-43h-39z" />
    <glyph glyph-name="uni1EA3" unicode="&#x1ea3;" horiz-adv-x="476" 
d="M132 350h-69q8 67 53 102t124 35q58 0 98.5 -20.5t53.5 -57.5q11 -29 11 -106v-178q-1 -86 13 -125h-67q-7 22 -11 64q-42 -76 -139 -76q-70 0 -111.5 37.5t-41.5 99.5q0 101 110 142q59 22 178 42v20q0 53 -22 75.5t-75 22.5q-90 0 -105 -77zM334 210v47
q-119 -21 -167.5 -49.5t-48.5 -77.5q0 -37 25.5 -60t66.5 -23q71 0 105 56q19 34 19 107zM230 577l-1 72h15q73 0 73 50q0 23 -16 37t-43 14q-17 0 -56 -13v42q48 18 80 18q47 0 76 -25.5t29 -65.5q0 -45 -37 -68q-27 -18 -81 -18v-43h-39z" />
    <glyph glyph-name="uni1EA4" unicode="&#x1ea4;" horiz-adv-x="566" 
d="M385 802l118 116h100l-166 -136h-32l47 -48h-69l-101 88l-100 -88h-70l130 131h81zM250 671h65l230 -671h-78l-59 177h-251l-60 -177h-77zM387 242l-105 332l-105 -332h210z" />
    <glyph glyph-name="uni1EA5" unicode="&#x1ea5;" horiz-adv-x="476" 
d="M331 627l89 117h100l-146 -137h-27l47 -57h-68l-86 94l-85 -94h-68l113 140h81zM132 350h-69q8 67 53 102t124 35q58 0 98.5 -20.5t53.5 -57.5q11 -29 11 -106v-178q-1 -86 13 -125h-67q-7 22 -11 64q-42 -76 -139 -76q-70 0 -111.5 37.5t-41.5 99.5q0 101 110 142
q59 22 178 42v20q0 53 -22 75.5t-75 22.5q-90 0 -105 -77zM334 210v47q-119 -21 -167.5 -49.5t-48.5 -77.5q0 -37 25.5 -60t66.5 -23q71 0 105 56q19 34 19 107z" />
    <glyph glyph-name="uni1EA6" unicode="&#x1ea6;" horiz-adv-x="566" 
d="M438 794l-167 137h101l138 -137h-72zM242 865h81l129 -131h-69l-101 88l-100 -88h-70zM250 671h65l230 -671h-78l-59 177h-251l-60 -177h-77zM387 242l-105 332l-105 -332h210z" />
    <glyph glyph-name="uni1EA7" unicode="&#x1ea7;" horiz-adv-x="476" 
d="M394 613l-146 136h101l103 -136h-58zM200 690h81l113 -140h-68l-86 94l-85 -94h-68zM132 350h-69q8 67 53 102t124 35q58 0 98.5 -20.5t53.5 -57.5q11 -29 11 -106v-178q-1 -86 13 -125h-67q-7 22 -11 64q-42 -76 -139 -76q-70 0 -111.5 37.5t-41.5 99.5q0 101 110 142
q59 22 178 42v20q0 53 -22 75.5t-75 22.5q-90 0 -105 -77zM334 210v47q-119 -21 -167.5 -49.5t-48.5 -77.5q0 -37 25.5 -60t66.5 -23q71 0 105 56q19 34 19 107z" />
    <glyph glyph-name="uni1EA8" unicode="&#x1ea8;" horiz-adv-x="566" 
d="M377 810l-1 43h15q73 0 73 50q0 23 -16 37t-43 14q-20 0 -56 -14v42q48 19 80 19q47 0 76 -25.5t29 -65.5q0 -45 -37 -68q-27 -18 -81 -18v-43h-10l46 -47h-69l-101 88l-100 -88h-70l130 131h80zM250 671h65l230 -671h-78l-59 177h-251l-60 -177h-77zM387 242l-105 332
l-105 -332h210z" />
    <glyph glyph-name="uni1EA9" unicode="&#x1ea9;" horiz-adv-x="476" 
d="M323 637l-1 43h15q73 0 73 50q0 23 -16 37t-43 14q-20 0 -56 -13v42q48 18 80 18q47 0 76 -25.5t29 -65.5q0 -45 -37 -68q-27 -17 -81 -17v-43h-17l48 -60h-68l-85 95l-86 -95h-68l114 141h80zM132 350h-69q8 67 53 102t124 35q58 0 98.5 -20.5t53.5 -57.5
q11 -29 11 -106v-178q-1 -86 13 -125h-67q-7 22 -11 64q-42 -76 -139 -76q-70 0 -111.5 37.5t-41.5 99.5q0 101 110 142q59 22 178 42v20q0 53 -22 75.5t-75 22.5q-90 0 -105 -77zM334 210v47q-119 -21 -167.5 -49.5t-48.5 -77.5q0 -37 25.5 -60t66.5 -23q71 0 105 56
q19 34 19 107z" />
    <glyph glyph-name="uni1EAA" unicode="&#x1eaa;" horiz-adv-x="566" 
d="M250 671h65l230 -671h-78l-59 177h-251l-60 -177h-77zM387 242l-105 332l-105 -332h210zM112 734l130 131h81l129 -131h-69l-101 88l-100 -88h-70zM163 885l-43 16q23 97 91 97q31 0 75 -26q49 -28 69 -28q37 0 49 59l41 -16q-7 -48 -31 -74.5t-60 -26.5q-26 0 -83 31
q-38 22 -60 22q-35 0 -48 -54z" />
    <glyph glyph-name="uni1EAB" unicode="&#x1eab;" horiz-adv-x="476" 
d="M132 350h-69q8 67 53 102t124 35q58 0 98.5 -20.5t53.5 -57.5q11 -29 11 -106v-178q-1 -86 13 -125h-67q-7 22 -11 64q-42 -76 -139 -76q-70 0 -111.5 37.5t-41.5 99.5q0 101 110 142q59 22 178 42v20q0 53 -22 75.5t-75 22.5q-90 0 -105 -77zM334 210v47
q-119 -21 -167.5 -49.5t-48.5 -77.5q0 -37 25.5 -60t66.5 -23q71 0 105 56q19 34 19 107zM87 550l113 140h81l113 -140h-68l-86 94l-85 -94h-68zM143 718l-41 9q19 104 85 104q29 0 67 -26q43 -28 62 -28q32 0 44 58l40 -10q-6 -49 -28 -78t-54 -29q-27 0 -73 28
q-42 26 -59 26q-31 0 -43 -54z" />
    <glyph glyph-name="uni1EAC" unicode="&#x1eac;" horiz-adv-x="566" 
d="M250 671h65l230 -671h-78l-59 177h-251l-60 -177h-77zM387 242l-105 332l-105 -332h210zM112 734l130 131h81l129 -131h-69l-101 88l-100 -88h-70zM283 -76q25 0 43.5 -18t18.5 -44t-18 -44.5t-44 -18.5t-44.5 18t-18.5 44t18.5 44.5t44.5 18.5z" />
    <glyph glyph-name="uni1EAD" unicode="&#x1ead;" horiz-adv-x="476" 
d="M132 350h-69q8 67 53 102t124 35q58 0 98.5 -20.5t53.5 -57.5q11 -29 11 -106v-178q-1 -86 13 -125h-67q-7 22 -11 64q-42 -76 -139 -76q-70 0 -111.5 37.5t-41.5 99.5q0 101 110 142q59 22 178 42v20q0 53 -22 75.5t-75 22.5q-90 0 -105 -77zM334 210v47
q-119 -21 -167.5 -49.5t-48.5 -77.5q0 -37 25.5 -60t66.5 -23q71 0 105 56q19 34 19 107zM87 550l113 140h81l113 -140h-68l-86 94l-85 -94h-68zM238 -76q26 0 44 -18t18 -44t-18 -44.5t-44 -18.5t-44.5 18t-18.5 44t18.5 44.5t44.5 18.5z" />
    <glyph glyph-name="uni1EAE" unicode="&#x1eae;" horiz-adv-x="566" 
d="M250 671h65l230 -671h-78l-59 177h-251l-60 -177h-77zM387 242l-105 332l-105 -332h210zM146 866h40q11 -36 37 -56.5t60 -20.5t59.5 20.5t35.5 56.5h40q-7 -61 -43 -97t-91 -36q-56 0 -93.5 36.5t-44.5 96.5zM237 840l138 137h101l-167 -137h-72z" />
    <glyph glyph-name="uni1EAF" unicode="&#x1eaf;" horiz-adv-x="476" 
d="M132 350h-69q8 67 53 102t124 35q58 0 98.5 -20.5t53.5 -57.5q11 -29 11 -106v-178q-1 -86 13 -125h-67q-7 22 -11 64q-42 -76 -139 -76q-70 0 -111.5 37.5t-41.5 99.5q0 101 110 142q59 22 178 42v20q0 53 -22 75.5t-75 22.5q-90 0 -105 -77zM334 210v47
q-119 -21 -167.5 -49.5t-48.5 -77.5q0 -37 25.5 -60t66.5 -23q71 0 105 56q19 34 19 107zM116 682h41q22 -78 83 -78q60 0 81 78h41q-6 -63 -38.5 -99t-82.5 -36t-84.5 37t-40.5 98zM198 674l104 137h100l-145 -137h-59z" />
    <glyph glyph-name="uni1EB0" unicode="&#x1eb0;" horiz-adv-x="566" 
d="M250 671h65l230 -671h-78l-59 177h-251l-60 -177h-77zM387 242l-105 332l-105 -332h210zM146 866h40q11 -36 37 -56.5t60 -20.5t59.5 20.5t35.5 56.5h40q-7 -61 -43 -97t-91 -36q-56 0 -93.5 36.5t-44.5 96.5zM335 840h-72l-166 137h100z" />
    <glyph glyph-name="uni1EB1" unicode="&#x1eb1;" horiz-adv-x="476" 
d="M132 350h-69q8 67 53 102t124 35q58 0 98.5 -20.5t53.5 -57.5q11 -29 11 -106v-178q-1 -86 13 -125h-67q-7 22 -11 64q-42 -76 -139 -76q-70 0 -111.5 37.5t-41.5 99.5q0 101 110 142q59 22 178 42v20q0 53 -22 75.5t-75 22.5q-90 0 -105 -77zM334 210v47
q-119 -21 -167.5 -49.5t-48.5 -77.5q0 -37 25.5 -60t66.5 -23q71 0 105 56q19 34 19 107zM116 682h41q22 -78 83 -78q60 0 81 78h41q-6 -63 -38.5 -99t-82.5 -36t-84.5 37t-40.5 98zM300 659h-58l-146 137h101z" />
    <glyph glyph-name="uni1EB2" unicode="&#x1eb2;" horiz-adv-x="566" 
d="M250 671h65l230 -671h-78l-59 177h-251l-60 -177h-77zM387 242l-105 332l-105 -332h210zM146 866h40q11 -36 37 -56.5t60 -20.5t59.5 20.5t35.5 56.5h40q-7 -61 -43 -97t-91 -36q-56 0 -93.5 36.5t-44.5 96.5zM264 838l-1 72h15q73 0 73 50q0 23 -16 37t-43 14
q-20 0 -56 -14v43q48 18 80 18q47 0 76 -25.5t29 -65.5q0 -45 -37 -68q-27 -18 -81 -18v-43h-39z" />
    <glyph glyph-name="uni1EB3" unicode="&#x1eb3;" horiz-adv-x="476" 
d="M132 350h-69q8 67 53 102t124 35q58 0 98.5 -20.5t53.5 -57.5q11 -29 11 -106v-178q-1 -86 13 -125h-67q-7 22 -11 64q-42 -76 -139 -76q-70 0 -111.5 37.5t-41.5 99.5q0 101 110 142q59 22 178 42v20q0 53 -22 75.5t-75 22.5q-90 0 -105 -77zM334 210v47
q-119 -21 -167.5 -49.5t-48.5 -77.5q0 -37 25.5 -60t66.5 -23q71 0 105 56q19 34 19 107zM116 682h41q22 -78 83 -78q60 0 81 78h41q-6 -63 -38.5 -99t-82.5 -36t-84.5 37t-40.5 98zM222 658l-1 72h15q73 0 73 50q0 23 -16 37t-43 14q-20 0 -56 -14v43q48 18 80 18
q47 0 76 -25.5t29 -65.5q0 -45 -37 -68q-27 -18 -81 -18v-43h-39z" />
    <glyph glyph-name="uni1EB4" unicode="&#x1eb4;" horiz-adv-x="566" 
d="M250 671h65l230 -671h-78l-59 177h-251l-60 -177h-77zM387 242l-105 332l-105 -332h210zM146 866h40q11 -36 37 -56.5t60 -20.5t59.5 20.5t35.5 56.5h40q-7 -61 -43 -97t-91 -36q-56 0 -93.5 36.5t-44.5 96.5zM175 886l-44 16q13 50 35 73.5t57 23.5q29 0 75 -25
q49 -28 69 -28q37 0 49 58l41 -16q-8 -47 -31.5 -73.5t-59.5 -26.5q-27 0 -83 31q-39 21 -60 21q-35 0 -48 -54z" />
    <glyph glyph-name="uni1EB5" unicode="&#x1eb5;" horiz-adv-x="476" 
d="M132 350h-69q8 67 53 102t124 35q58 0 98.5 -20.5t53.5 -57.5q11 -29 11 -106v-178q-1 -86 13 -125h-67q-7 22 -11 64q-42 -76 -139 -76q-70 0 -111.5 37.5t-41.5 99.5q0 101 110 142q59 22 178 42v20q0 53 -22 75.5t-75 22.5q-90 0 -105 -77zM334 210v47
q-119 -21 -167.5 -49.5t-48.5 -77.5q0 -37 25.5 -60t66.5 -23q71 0 105 56q19 34 19 107zM116 682h41q22 -78 83 -78q60 0 81 78h41q-6 -63 -38.5 -99t-82.5 -36t-84.5 37t-40.5 98zM137 720l-41 10q19 103 85 103q29 0 67 -26q43 -28 62 -28q32 0 44 58l41 -9
q-7 -50 -29 -79t-54 -29q-27 0 -73 28q-42 26 -59 26q-31 0 -43 -54z" />
    <glyph glyph-name="uni1EB6" unicode="&#x1eb6;" horiz-adv-x="566" 
d="M250 671h65l230 -671h-78l-59 177h-251l-60 -177h-77zM387 242l-105 332l-105 -332h210zM146 866h40q11 -36 37 -56.5t60 -20.5t59.5 20.5t35.5 56.5h40q-7 -61 -43 -97t-91 -36q-56 0 -93.5 36.5t-44.5 96.5zM283 -76q25 0 43.5 -18t18.5 -44t-18 -44.5t-44 -18.5
t-44.5 18t-18.5 44t18.5 44.5t44.5 18.5z" />
    <glyph glyph-name="uni1EB7" unicode="&#x1eb7;" horiz-adv-x="476" 
d="M132 350h-69q8 67 53 102t124 35q58 0 98.5 -20.5t53.5 -57.5q11 -29 11 -106v-178q-1 -86 13 -125h-67q-7 22 -11 64q-42 -76 -139 -76q-70 0 -111.5 37.5t-41.5 99.5q0 101 110 142q59 22 178 42v20q0 53 -22 75.5t-75 22.5q-90 0 -105 -77zM334 210v47
q-119 -21 -167.5 -49.5t-48.5 -77.5q0 -37 25.5 -60t66.5 -23q71 0 105 56q19 34 19 107zM116 682h41q22 -78 83 -78q60 0 81 78h41q-6 -63 -38.5 -99t-82.5 -36t-84.5 37t-40.5 98zM238 -76q26 0 44 -18t18 -44t-18 -44.5t-44 -18.5t-44.5 18t-18.5 44t18.5 44.5t44.5 18.5
z" />
    <glyph glyph-name="uni1EB8" unicode="&#x1eb8;" horiz-adv-x="502" 
d="M161 378h270v-65h-270v-248h298v-65h-373v667h366v-65h-291v-224zM251 -76q25 0 43.5 -18t18.5 -44t-18 -44.5t-44 -18.5t-44.5 18t-18.5 44t18.5 44.5t44.5 18.5z" />
    <glyph glyph-name="uni1EB9" unicode="&#x1eb9;" horiz-adv-x="486" 
d="M440 225h-323q2 -86 37 -131.5t100 -45.5q39 0 64.5 16.5t45.5 55.5l65 -8q-44 -124 -176 -124q-95 0 -151.5 66t-56.5 178q0 116 55.5 185.5t148.5 69.5q88 0 140 -66t52 -176q0 -11 -1 -20zM119 280h249q-6 72 -37.5 110t-84.5 38q-106 0 -127 -148zM243 -76
q25 0 43.5 -18t18.5 -44t-18 -44.5t-44 -18.5t-44.5 18t-18.5 44t18.5 44.5t44.5 18.5z" />
    <glyph glyph-name="uni1EBA" unicode="&#x1eba;" horiz-adv-x="502" 
d="M161 378h270v-65h-270v-248h298v-65h-373v667h366v-65h-291v-224zM243 749l-1 72h15q73 0 73 50q0 23 -16 37t-43 14q-20 0 -56 -14v43q48 18 80 18q47 0 76 -25.5t29 -65.5q0 -45 -37 -68q-27 -18 -81 -18v-43h-39z" />
    <glyph glyph-name="uni1EBB" unicode="&#x1ebb;" horiz-adv-x="486" 
d="M440 225h-323q2 -86 37 -131.5t100 -45.5q39 0 64.5 16.5t45.5 55.5l65 -8q-44 -124 -176 -124q-95 0 -151.5 66t-56.5 178q0 116 55.5 185.5t148.5 69.5q88 0 140 -66t52 -176q0 -11 -1 -20zM119 280h249q-6 72 -37.5 110t-84.5 38q-106 0 -127 -148zM235 577l-1 72h15
q73 0 73 50q0 23 -16 37t-43 14q-17 0 -56 -13v42q48 18 80 18q47 0 76 -25.5t29 -65.5q0 -45 -37 -68q-27 -18 -81 -18v-43h-39z" />
    <glyph glyph-name="uni1EBC" unicode="&#x1ebc;" horiz-adv-x="502" 
d="M161 378h270v-65h-270v-248h298v-65h-373v667h366v-65h-291v-224zM168 742l-43 16q23 97 91 97q31 0 75 -26q49 -28 69 -28q37 0 49 58l41 -16q-8 -47 -31.5 -73.5t-59.5 -26.5q-27 0 -83 31q-39 22 -60 22q-35 0 -48 -54z" />
    <glyph glyph-name="uni1EBD" unicode="&#x1ebd;" horiz-adv-x="486" 
d="M440 225h-323q2 -86 37 -131.5t100 -45.5q39 0 64.5 16.5t45.5 55.5l65 -8q-44 -124 -176 -124q-95 0 -151.5 66t-56.5 178q0 116 55.5 185.5t148.5 69.5q88 0 140 -66t52 -176q0 -11 -1 -20zM119 280h249q-6 72 -37.5 110t-84.5 38q-106 0 -127 -148zM134 559l-40 10
q19 104 84 104q28 0 68 -26q43 -28 61 -28q32 0 44 58l41 -10q-6 -49 -28.5 -78t-54.5 -29q-27 0 -73 28q-41 26 -58 26q-32 0 -44 -55z" />
    <glyph glyph-name="uni1EBE" unicode="&#x1ebe;" horiz-adv-x="502" 
d="M368 809l116 115h100l-166 -137h-29l53 -53h-69l-101 88l-100 -88h-70l130 131h80zM161 378h270v-65h-270v-248h298v-65h-373v667h366v-65h-291v-224z" />
    <glyph glyph-name="uni1EBF" unicode="&#x1ebf;" horiz-adv-x="486" 
d="M342 624l88 116h100l-145 -136h-26l43 -54h-68l-85 94l-86 -94h-68l113 140h81zM440 225h-323q2 -86 37 -131.5t100 -45.5q39 0 64.5 16.5t45.5 55.5l65 -8q-44 -124 -176 -124q-95 0 -151.5 66t-56.5 178q0 116 55.5 185.5t148.5 69.5q88 0 140 -66t52 -176
q0 -11 -1 -20zM119 280h249q-6 72 -37.5 110t-84.5 38q-106 0 -127 -148z" />
    <glyph glyph-name="uni1EC0" unicode="&#x1ec0;" horiz-adv-x="502" 
d="M437 786l-167 136h101l138 -136h-72zM232 865h80l130 -131h-69l-101 88l-100 -88h-70zM161 378h270v-65h-270v-248h298v-65h-373v667h366v-65h-291v-224z" />
    <glyph glyph-name="uni1EC1" unicode="&#x1ec1;" horiz-adv-x="486" 
d="M383 627l-146 136h101l103 -136h-58zM208 690h81l113 -140h-68l-85 94l-86 -94h-68zM440 225h-323q2 -86 37 -131.5t100 -45.5q39 0 64.5 16.5t45.5 55.5l65 -8q-44 -124 -176 -124q-95 0 -151.5 66t-56.5 178q0 116 55.5 185.5t148.5 69.5q88 0 140 -66t52 -176
q0 -11 -1 -20zM119 280h249q-6 72 -37.5 110t-84.5 38q-106 0 -127 -148z" />
    <glyph glyph-name="uni1EC2" unicode="&#x1ec2;" horiz-adv-x="502" 
d="M375 803l-1 45h15q73 0 73 49q0 23 -16 37t-43 14q-19 0 -56 -13v42q49 18 80 18q47 0 76 -25.5t29 -65.5q0 -44 -37 -67q-27 -18 -81 -18v-43h-13l42 -42h-70l-101 88l-100 -88h-69l129 131h81zM161 378h270v-65h-270v-248h298v-65h-373v667h366v-65h-291v-224z" />
    <glyph glyph-name="uni1EC3" unicode="&#x1ec3;" horiz-adv-x="486" 
d="M328 641l-1 43h15q73 0 73 50q0 23 -16 37t-43 14q-19 0 -56 -13v42q49 18 80 18q47 0 76 -25.5t29 -65.5q0 -45 -37 -68q-27 -17 -81 -17v-43h-16l51 -64h-68l-86 95l-85 -95h-68l113 141h80zM440 225h-323q2 -86 37 -131.5t100 -45.5q39 0 64.5 16.5t45.5 55.5l65 -8
q-44 -124 -176 -124q-95 0 -151.5 66t-56.5 178q0 116 55.5 185.5t148.5 69.5q88 0 140 -66t52 -176q0 -11 -1 -20zM119 280h249q-6 72 -37.5 110t-84.5 38q-106 0 -127 -148z" />
    <glyph glyph-name="uni1EC4" unicode="&#x1ec4;" horiz-adv-x="502" 
d="M161 378h270v-65h-270v-248h298v-65h-373v667h366v-65h-291v-224zM102 734l130 131h80l130 -131h-69l-101 88l-100 -88h-70zM166 881l-43 16q23 97 91 97q31 0 75 -26q49 -28 69 -28q37 0 49 58l41 -16q-8 -47 -31.5 -73.5t-59.5 -26.5q-27 0 -83 31q-39 22 -60 22
q-35 0 -48 -54z" />
    <glyph glyph-name="uni1EC5" unicode="&#x1ec5;" horiz-adv-x="486" 
d="M95 550l113 140h81l113 -140h-68l-85 94l-86 -94h-68zM440 225h-323q2 -86 37 -131.5t100 -45.5q39 0 64.5 16.5t45.5 55.5l65 -8q-44 -124 -176 -124q-95 0 -151.5 66t-56.5 178q0 116 55.5 185.5t148.5 69.5q88 0 140 -66t52 -176q0 -11 -1 -20zM119 280h249
q-6 72 -37.5 110t-84.5 38q-106 0 -127 -148zM163 715l-41 10q21 103 85 103q29 0 67 -26q43 -28 62 -28q32 0 44 58l41 -9q-7 -50 -29 -79t-54 -29q-27 0 -73 28q-42 26 -58 26q-32 0 -44 -54z" />
    <glyph glyph-name="uni1EC6" unicode="&#x1ec6;" horiz-adv-x="502" 
d="M161 378h270v-65h-270v-248h298v-65h-373v667h366v-65h-291v-224zM102 734l130 131h80l130 -131h-69l-101 88l-100 -88h-70zM251 -76q25 0 43.5 -18t18.5 -44t-18 -44.5t-44 -18.5t-44.5 18t-18.5 44t18.5 44.5t44.5 18.5z" />
    <glyph glyph-name="uni1EC7" unicode="&#x1ec7;" horiz-adv-x="486" 
d="M95 550l113 140h81l113 -140h-68l-85 94l-86 -94h-68zM440 225h-323q2 -86 37 -131.5t100 -45.5q39 0 64.5 16.5t45.5 55.5l65 -8q-44 -124 -176 -124q-95 0 -151.5 66t-56.5 178q0 116 55.5 185.5t148.5 69.5q88 0 140 -66t52 -176q0 -11 -1 -20zM119 280h249
q-6 72 -37.5 110t-84.5 38q-106 0 -127 -148zM243 -76q25 0 43.5 -18t18.5 -44t-18 -44.5t-44 -18.5t-44.5 18t-18.5 44t18.5 44.5t44.5 18.5z" />
    <glyph glyph-name="uni1EC8" unicode="&#x1ec8;" horiz-adv-x="246" 
d="M162 0h-77v667h77v-667zM106 730l-1 72h15q73 0 73 50q0 23 -16 37t-43 14q-20 0 -56 -14v43q48 18 80 18q47 0 76 -25.5t29 -65.5q0 -45 -37 -68q-27 -18 -81 -18v-43h-39z" />
    <glyph glyph-name="uni1EC9" unicode="&#x1ec9;" horiz-adv-x="221" 
d="M73 474h74v-474h-74v474zM94 577l-1 72h15q73 0 73 50q0 23 -16 37t-43 14q-17 0 -56 -13v42q48 18 80 18q47 0 76 -25.5t29 -65.5q0 -45 -37 -68q-27 -18 -81 -18v-43h-39z" />
    <glyph glyph-name="uni1ECA" unicode="&#x1eca;" horiz-adv-x="246" 
d="M161 0h-77v667h77v-667zM123 -76q25 0 43.5 -18t18.5 -44t-18 -44.5t-44 -18.5t-44.5 18t-18.5 44t18.5 44.5t44.5 18.5z" />
    <glyph glyph-name="uni1ECB" unicode="&#x1ecb;" horiz-adv-x="221" 
d="M74 474h74v-474h-74v474zM112 676q22 0 36 -14.5t14 -37.5q0 -22 -14.5 -36t-36.5 -14t-36.5 14t-14.5 36t15 37t37 15zM111 -76q25 0 43.5 -18t18.5 -44t-18 -44.5t-44 -18.5t-44.5 18t-18.5 44t18.5 44.5t44.5 18.5z" />
    <glyph glyph-name="uni1ECC" unicode="&#x1ecc;" horiz-adv-x="646" 
d="M323 679q121 0 196 -95.5t75 -249.5t-75 -249.5t-196 -95.5q-123 0 -197.5 96t-74.5 254q0 149 76 244.5t196 95.5zM323 613q-86 0 -139 -75.5t-53 -199.5q0 -130 52 -206.5t140 -76.5q86 0 138.5 76.5t52.5 202.5t-52.5 202.5t-138.5 76.5zM323 -76q25 0 43.5 -18
t18.5 -44t-18 -44.5t-44 -18.5t-44.5 18t-18.5 44t18.5 44.5t44.5 18.5z" />
    <glyph glyph-name="uni1ECD" unicode="&#x1ecd;" horiz-adv-x="504" 
d="M252 487q92 0 149.5 -69.5t57.5 -180.5q0 -110 -58 -179.5t-149 -69.5q-92 0 -149.5 70t-57.5 183q0 107 58 176.5t149 69.5zM252 427q-60 0 -97.5 -52t-37.5 -135q0 -87 37 -139.5t98 -52.5t98 52t37 138q0 85 -37 137t-98 52zM252 -76q26 0 44 -18t18 -44t-18 -44.5
t-44 -18.5t-44.5 18t-18.5 44t18.5 44.5t44.5 18.5z" />
    <glyph glyph-name="uni1ECE" unicode="&#x1ece;" horiz-adv-x="646" 
d="M323 679q121 0 196 -95.5t75 -249.5t-75 -249.5t-196 -95.5q-123 0 -197.5 96t-74.5 254q0 149 76 244.5t196 95.5zM323 613q-86 0 -139 -75.5t-53 -199.5q0 -130 52 -206.5t140 -76.5q86 0 138.5 76.5t52.5 202.5t-52.5 202.5t-138.5 76.5zM302 749l-1 72h15q73 0 73 50
q0 23 -16 37t-43 14q-20 0 -56 -14v43q48 18 80 18q47 0 76 -25.5t29 -65.5q0 -45 -37 -68q-27 -18 -81 -18v-43h-39z" />
    <glyph glyph-name="uni1ECF" unicode="&#x1ecf;" horiz-adv-x="504" 
d="M252 487q92 0 149.5 -69.5t57.5 -180.5q0 -110 -58 -179.5t-149 -69.5q-92 0 -149.5 70t-57.5 183q0 107 58 176.5t149 69.5zM252 427q-60 0 -97.5 -52t-37.5 -135q0 -87 37 -139.5t98 -52.5t98 52t37 138q0 85 -37 137t-98 52zM244 577l-1 72h15q73 0 73 50q0 23 -16 37
t-43 14q-17 0 -56 -13v42q48 18 80 18q47 0 76 -25.5t29 -65.5q0 -45 -37 -68q-27 -18 -81 -18v-43h-39z" />
    <glyph glyph-name="uni1ED0" unicode="&#x1ed0;" horiz-adv-x="646" 
d="M423 805l119 117h100l-166 -136h-34l51 -52h-69l-101 88l-101 -88h-69l130 131h80zM323 679q120 0 195.5 -96t75.5 -249q0 -166 -89 -264q-73 -81 -179 -81q-124 0 -199.5 95.5t-75.5 250.5q0 152 76 248t196 96zM323 613q-88 0 -140 -75.5t-52 -203.5q0 -126 52 -202.5
t137 -76.5q90 0 142 75.5t52 204.5q0 127 -52 202.5t-139 75.5z" />
    <glyph glyph-name="uni1ED1" unicode="&#x1ed1;" horiz-adv-x="504" 
d="M334 638l88 115h100l-145 -136h-26l54 -67h-67l-86 94l-85 -94h-68l113 140h80zM252 487q91 0 149 -70t58 -180t-57.5 -179.5t-149.5 -69.5q-91 0 -149 69.5t-58 176.5q0 113 57.5 183t149.5 70zM252 427q-60 0 -97.5 -52t-37.5 -135q0 -87 37 -139.5t98 -52.5t98 52
t37 138q0 85 -37 137t-98 52z" />
    <glyph glyph-name="uni1ED2" unicode="&#x1ed2;" horiz-adv-x="646" 
d="M478 792l-166 137h100l139 -137h-73zM283 865h80l130 -131h-69l-101 88l-101 -88h-69zM323 679q120 0 195.5 -96t75.5 -249q0 -166 -89 -264q-73 -81 -179 -81q-124 0 -199.5 95.5t-75.5 250.5q0 152 76 248t196 96zM323 613q-88 0 -140 -75.5t-52 -203.5
q0 -126 52 -202.5t137 -76.5q90 0 142 75.5t52 204.5q0 127 -52 202.5t-139 75.5z" />
    <glyph glyph-name="uni1ED3" unicode="&#x1ed3;" horiz-adv-x="504" 
d="M400 627l-146 136h101l103 -136h-58zM212 690h80l113 -140h-67l-86 94l-85 -94h-68zM252 487q91 0 149 -70t58 -180t-57.5 -179.5t-149.5 -69.5q-91 0 -149 69.5t-58 176.5q0 113 57.5 183t149.5 70zM252 427q-60 0 -97.5 -52t-37.5 -135q0 -87 37 -139.5t98 -52.5t98 52
t37 138q0 85 -37 137t-98 52z" />
    <glyph glyph-name="uni1ED4" unicode="&#x1ed4;" horiz-adv-x="646" 
d="M423 805l-1 54h15q73 0 73 49q0 23 -16 37t-43 14q-18 0 -56 -13v42q48 18 80 18q47 0 76 -25.5t29 -65.5q0 -44 -37 -67q-27 -18 -81 -18v-43h-22l53 -53h-70l-101 88l-100 -88h-70l130 131h80zM323 679q120 0 195.5 -96t75.5 -249q0 -166 -89 -264q-73 -81 -179 -81
q-124 0 -199.5 95.5t-75.5 250.5q0 152 76 248t196 96zM323 613q-88 0 -140 -75.5t-52 -203.5q0 -126 52 -202.5t137 -76.5q90 0 142 75.5t52 204.5q0 127 -52 202.5t-139 75.5z" />
    <glyph glyph-name="uni1ED5" unicode="&#x1ed5;" horiz-adv-x="504" 
d="M328 646l-1 41h15q73 0 73 50q0 23 -16 37t-43 14q-20 0 -56 -14v42q48 19 80 19q47 0 76 -25.5t29 -65.5q0 -45 -37 -68q-27 -18 -81 -18v-43h-14l53 -65h-68l-86 94l-85 -94h-68l113 140h80zM252 487q91 0 149 -70t58 -180t-57.5 -179.5t-149.5 -69.5q-91 0 -149 69.5
t-58 176.5q0 113 57.5 183t149.5 70zM252 427q-60 0 -97.5 -52t-37.5 -135q0 -87 37 -139.5t98 -52.5t98 52t37 138q0 85 -37 137t-98 52z" />
    <glyph glyph-name="uni1ED6" unicode="&#x1ed6;" horiz-adv-x="646" 
d="M153 734l130 131h80l130 -131h-69l-101 88l-101 -88h-69zM323 679q120 0 195.5 -96t75.5 -248q0 -155 -75.5 -250.5t-199.5 -95.5q-118 0 -193 96.5t-75 248.5q0 153 75.5 249t196.5 96zM323 613q-88 0 -140 -75.5t-52 -203.5q0 -126 52 -202.5t137 -76.5q90 0 142 75.5
t52 204.5q0 127 -52 202.5t-139 75.5zM213 874l-43 16q13 50 35 73.5t57 23.5q30 0 75 -26q49 -28 68 -28q38 0 49 58l42 -16q-8 -47 -31.5 -73.5t-59.5 -26.5q-27 0 -83 31q-40 22 -60 22q-34 0 -49 -54z" />
    <glyph glyph-name="uni1ED7" unicode="&#x1ed7;" horiz-adv-x="504" 
d="M99 550l113 140h80l113 -140h-67l-86 94l-85 -94h-68zM252 487q92 0 149.5 -69.5t57.5 -180.5q0 -110 -58 -179.5t-149 -69.5q-92 0 -149.5 70t-57.5 183q0 107 58 176.5t149 69.5zM252 427q-60 0 -97.5 -52t-37.5 -135q0 -87 37 -139.5t98 -52.5t98 52t37 138
q0 85 -37 137t-98 52zM143 704l-40 10q19 104 85 104q29 0 67 -26q43 -29 61 -29q33 0 44 59l41 -10q-6 -50 -28.5 -79t-54.5 -29q-26 0 -72 28q-42 27 -59 27q-32 0 -44 -55z" />
    <glyph glyph-name="uni1ED8" unicode="&#x1ed8;" horiz-adv-x="646" 
d="M153 734l130 131h80l130 -131h-69l-101 88l-101 -88h-69zM323 679q120 0 195.5 -96t75.5 -248q0 -155 -75.5 -250.5t-199.5 -95.5q-118 0 -193 96.5t-75 248.5q0 153 75.5 249t196.5 96zM323 613q-88 0 -140 -75.5t-52 -203.5q0 -126 52 -202.5t137 -76.5q90 0 142 75.5
t52 204.5q0 127 -52 202.5t-139 75.5zM323 -76q25 0 43.5 -18t18.5 -44t-18 -44.5t-44 -18.5t-44.5 18t-18.5 44t18.5 44.5t44.5 18.5z" />
    <glyph glyph-name="uni1ED9" unicode="&#x1ed9;" horiz-adv-x="504" 
d="M99 550l113 140h80l113 -140h-67l-86 94l-85 -94h-68zM252 487q92 0 149.5 -69.5t57.5 -180.5q0 -110 -58 -179.5t-149 -69.5q-92 0 -149.5 70t-57.5 183q0 107 58 176.5t149 69.5zM252 427q-60 0 -97.5 -52t-37.5 -135q0 -87 37 -139.5t98 -52.5t98 52t37 138
q0 85 -37 137t-98 52zM252 -76q26 0 44 -18t18 -44t-18 -44.5t-44 -18.5t-44.5 18t-18.5 44t18.5 44.5t44.5 18.5z" />
    <glyph glyph-name="uni1EDA" unicode="&#x1eda;" horiz-adv-x="646" 
d="M561 625h-6q-20 1 -33.5 14t-13.5 33q0 22 15 36.5t38 14.5q25 0 40.5 -18t15.5 -47q0 -58 -65 -127q42 -81 42 -199q0 -152 -75.5 -247.5t-195.5 -95.5q-121 0 -196.5 95.5t-75.5 249.5t75.5 249.5t196.5 95.5q129 0 210 -116q25 37 28 62zM323 613q-86 0 -139 -75.5
t-53 -199.5q0 -130 52 -206.5t140 -76.5q86 0 138.5 76.5t52.5 202.5t-52.5 202.5t-138.5 76.5zM278 731l138 137h100l-166 -137h-72z" />
    <glyph glyph-name="uni1EDB" unicode="&#x1edb;" horiz-adv-x="504" 
d="M432 376l-2 -2q29 -64 29 -137q0 -110 -57.5 -179.5t-149.5 -69.5t-149.5 69.5t-57.5 179.5t58 180t149 70q101 0 159 -82q28 37 31 65h-6q-20 0 -33.5 14t-13.5 33q0 22 15 36.5t37 14.5q25 0 40.5 -18t15.5 -48q0 -57 -65 -126zM252 427q-60 0 -97.5 -52t-37.5 -135
q0 -87 37 -139.5t98 -52.5t98 52t37 138q0 85 -37 137t-98 52zM212 547l104 137h100l-145 -137h-59z" />
    <glyph glyph-name="uni1EDC" unicode="&#x1edc;" horiz-adv-x="646" 
d="M561 625h-6q-20 1 -33.5 14t-13.5 33q0 22 15 36.5t38 14.5q25 0 40.5 -18t15.5 -47q0 -58 -65 -127q42 -81 42 -199q0 -152 -75.5 -247.5t-195.5 -95.5q-121 0 -196.5 95.5t-75.5 249.5t75.5 249.5t196.5 95.5q129 0 210 -116q25 37 28 62zM323 613q-86 0 -139 -75.5
t-53 -199.5q0 -130 52 -206.5t140 -76.5q86 0 138.5 76.5t52.5 202.5t-52.5 202.5t-138.5 76.5zM376 731h-73l-166 137h100z" />
    <glyph glyph-name="uni1EDD" unicode="&#x1edd;" horiz-adv-x="504" 
d="M432 376l-2 -2q29 -64 29 -137q0 -110 -57.5 -179.5t-149.5 -69.5t-149.5 69.5t-57.5 179.5t58 180t149 70q101 0 159 -82q28 37 31 65h-6q-20 0 -33.5 14t-13.5 33q0 22 15 36.5t37 14.5q25 0 40.5 -18t15.5 -48q0 -57 -65 -126zM252 427q-60 0 -97.5 -52t-37.5 -135
q0 -87 37 -139.5t98 -52.5t98 52t37 138q0 85 -37 137t-98 52zM314 547h-58l-146 137h100z" />
    <glyph glyph-name="uni1EDE" unicode="&#x1ede;" horiz-adv-x="646" 
d="M561 625h-6q-20 1 -33.5 14t-13.5 33q0 22 15 36.5t38 14.5q25 0 40.5 -18t15.5 -47q0 -58 -65 -127q42 -81 42 -199q0 -152 -75.5 -247.5t-195.5 -95.5q-121 0 -196.5 95.5t-75.5 249.5t75.5 249.5t196.5 95.5q129 0 210 -116q25 37 28 62zM323 613q-86 0 -139 -75.5
t-53 -199.5q0 -130 52 -206.5t140 -76.5q86 0 138.5 76.5t52.5 202.5t-52.5 202.5t-138.5 76.5zM300 722l-1 72h15q73 0 73 50q0 23 -16 37t-43 14q-20 0 -56 -14v43q48 18 80 18q47 0 76 -25.5t29 -65.5q0 -45 -37 -68q-27 -18 -81 -18v-43h-39z" />
    <glyph glyph-name="uni1EDF" unicode="&#x1edf;" horiz-adv-x="504" 
d="M432 376l-2 -2q29 -64 29 -137q0 -110 -57.5 -179.5t-149.5 -69.5t-149.5 69.5t-57.5 179.5t58 180t149 70q101 0 159 -82q28 37 31 65h-6q-20 0 -33.5 14t-13.5 33q0 22 15 36.5t37 14.5q25 0 40.5 -18t15.5 -48q0 -57 -65 -126zM252 427q-60 0 -97.5 -52t-37.5 -135
q0 -87 37 -139.5t98 -52.5t98 52t37 138q0 85 -37 137t-98 52zM234 558l-1 72h15q73 0 73 50q0 23 -16 37t-43 14q-20 0 -56 -14v43q48 18 80 18q47 0 76 -25.5t29 -65.5q0 -45 -37 -68q-27 -18 -81 -18v-43h-39z" />
    <glyph glyph-name="uni1EE0" unicode="&#x1ee0;" horiz-adv-x="646" 
d="M561 625h-6q-20 1 -33.5 14t-13.5 33q0 22 15 36.5t38 14.5q25 0 40.5 -18t15.5 -47q0 -58 -65 -127q42 -81 42 -199q0 -152 -75.5 -247.5t-195.5 -95.5q-121 0 -196.5 95.5t-75.5 249.5t75.5 249.5t196.5 95.5q129 0 210 -116q25 37 28 62zM323 613q-86 0 -139 -75.5
t-53 -199.5q0 -130 52 -206.5t140 -76.5q86 0 138.5 76.5t52.5 202.5t-52.5 202.5t-138.5 76.5zM203 742l-43 16q13 50 35 73.5t57 23.5q30 0 75 -26q49 -28 68 -28q37 0 49 58l41 -16q-7 -47 -30.5 -73.5t-59.5 -26.5q-27 0 -84 31q-39 22 -59 22q-36 0 -49 -54z" />
    <glyph glyph-name="uni1EE1" unicode="&#x1ee1;" horiz-adv-x="504" 
d="M432 376l-2 -2q29 -64 29 -137q0 -110 -57.5 -179.5t-149.5 -69.5t-149.5 69.5t-57.5 179.5t58 180t149 70q101 0 159 -82q28 37 31 65h-6q-20 0 -33.5 14t-13.5 33q0 22 15 36.5t37 14.5q25 0 40.5 -18t15.5 -48q0 -57 -65 -126zM252 427q-60 0 -97.5 -52t-37.5 -135
q0 -87 37 -139.5t98 -52.5t98 52t37 138q0 85 -37 137t-98 52zM143 559l-40 10q19 104 85 104q29 0 67 -26q43 -28 61 -28q33 0 44 58l41 -10q-6 -49 -28.5 -78t-54.5 -29q-28 0 -72 28q-42 26 -59 26q-31 0 -44 -55z" />
    <glyph glyph-name="uni1EE2" unicode="&#x1ee2;" horiz-adv-x="646" 
d="M561 625h-6q-20 1 -33.5 14t-13.5 33q0 22 15 36.5t38 14.5q25 0 40.5 -18t15.5 -47q0 -58 -65 -127q42 -81 42 -199q0 -152 -75.5 -247.5t-195.5 -95.5q-121 0 -196.5 95.5t-75.5 249.5t75.5 249.5t196.5 95.5q129 0 210 -116q25 37 28 62zM323 613q-86 0 -139 -75.5
t-53 -199.5q0 -130 52 -206.5t140 -76.5q86 0 138.5 76.5t52.5 202.5t-52.5 202.5t-138.5 76.5zM323 -76q25 0 43.5 -18t18.5 -44t-18 -44.5t-44 -18.5t-44.5 18t-18.5 44t18.5 44.5t44.5 18.5z" />
    <glyph glyph-name="uni1EE3" unicode="&#x1ee3;" horiz-adv-x="504" 
d="M432 376l-2 -2q29 -64 29 -137q0 -110 -57.5 -179.5t-149.5 -69.5t-149.5 69.5t-57.5 179.5t58 180t149 70q101 0 159 -82q28 37 31 65h-6q-20 0 -33.5 14t-13.5 33q0 22 15 36.5t37 14.5q25 0 40.5 -18t15.5 -48q0 -57 -65 -126zM252 427q-60 0 -97.5 -52t-37.5 -135
q0 -87 37 -139.5t98 -52.5t98 52t37 138q0 85 -37 137t-98 52zM252 -76q26 0 44 -18t18 -44t-18 -44.5t-44 -18.5t-44.5 18t-18.5 44t18.5 44.5t44.5 18.5z" />
    <glyph glyph-name="uni1EE4" unicode="&#x1ee4;" horiz-adv-x="625" 
d="M77 667h75v-393q0 -73 4 -102t17 -52q18 -30 55.5 -47.5t84.5 -17.5q52 0 90.5 20.5t54.5 57.5q15 34 15 141v393h75v-394q0 -79 -2.5 -106t-13.5 -54q-24 -59 -82 -91.5t-137 -32.5q-80 0 -138 32.5t-82 91.5q-11 27 -13.5 54t-2.5 106v394zM313 -76q25 0 43.5 -18
t18.5 -44t-18 -44.5t-44 -18.5t-44.5 18t-18.5 44t18.5 44.5t44.5 18.5z" />
    <glyph glyph-name="uni1EE5" unicode="&#x1ee5;" horiz-adv-x="497" 
d="M71 474h70v-290q0 -69 16 -95q25 -38 81 -38q63 0 96 53q20 34 20 101v269h70v-330q0 -79 1.5 -98.5t9.5 -45.5h-69q-8 26 -10 63q-21 -40 -50.5 -57.5t-75.5 -17.5q-96 0 -138 72q-21 35 -21 124v290zM249 -76q25 0 43.5 -18t18.5 -44t-18 -44.5t-44 -18.5t-44.5 18
t-18.5 44t18.5 44.5t44.5 18.5z" />
    <glyph glyph-name="uni1EE6" unicode="&#x1ee6;" horiz-adv-x="625" 
d="M77 667h75v-393q0 -73 4 -102t17 -52q18 -30 55.5 -47.5t84.5 -17.5q52 0 90.5 20.5t54.5 57.5q15 34 15 141v393h75v-394q0 -79 -2.5 -106t-13.5 -54q-24 -59 -82 -91.5t-137 -32.5q-80 0 -138 32.5t-82 91.5q-11 27 -13.5 54t-2.5 106v394zM305 745l-1 72h15
q73 0 73 50q0 23 -16 37t-43 14q-20 0 -56 -14v43q48 18 80 18q47 0 76 -25.5t29 -65.5q0 -45 -37 -68q-27 -18 -81 -18v-43h-39z" />
    <glyph glyph-name="uni1EE7" unicode="&#x1ee7;" horiz-adv-x="497" 
d="M71 474h70v-290q0 -69 16 -95q25 -38 81 -38q63 0 96 53q20 34 20 101v269h70v-330q0 -79 1.5 -98.5t9.5 -45.5h-69q-8 26 -10 63q-21 -40 -50.5 -57.5t-75.5 -17.5q-96 0 -138 72q-21 35 -21 124v290zM241 577l-1 72h15q73 0 73 50q0 23 -16 37t-43 14q-17 0 -56 -13v42
q48 18 80 18q47 0 76 -25.5t29 -65.5q0 -45 -37 -68q-27 -18 -81 -18v-43h-39z" />
    <glyph glyph-name="uni1EE8" unicode="&#x1ee8;" horiz-adv-x="625" 
d="M77 667h75v-393q0 -73 4 -102t17 -52q18 -30 55.5 -47.5t84.5 -17.5q52 0 90.5 20.5t54.5 57.5q15 34 15 141v393h75v-394q0 -79 -2.5 -106t-13.5 -54q-24 -59 -82 -91.5t-137 -32.5q-80 0 -138 32.5t-82 91.5q-11 27 -13.5 54t-2.5 106v394zM647 552h-46q55 53 60 99h-7
q-19 0 -33 14t-14 34q0 21 15.5 36t37.5 15q25 0 41 -18.5t16 -47.5q0 -58 -70 -132zM268 731l138 137h100l-166 -137h-72z" />
    <glyph glyph-name="uni1EE9" unicode="&#x1ee9;" horiz-adv-x="497" 
d="M71 474h70v-290q0 -69 16 -95q25 -38 81 -38q63 0 96 53q20 34 20 101v269h70v-330q0 -79 1.5 -98.5t9.5 -45.5h-69q-8 26 -10 63q-21 -40 -50.5 -57.5t-75.5 -17.5q-96 0 -138 72q-21 35 -21 124v290zM499 378h-46q24 22 40.5 49.5t18.5 48.5h-6q-20 1 -33.5 14.5
t-13.5 32.5q0 21 15 35.5t37 14.5q25 0 40.5 -18t15.5 -48q0 -57 -68 -129zM209 547l104 137h100l-145 -137h-59z" />
    <glyph glyph-name="uni1EEA" unicode="&#x1eea;" horiz-adv-x="625" 
d="M77 667h75v-393q0 -73 4 -102t17 -52q18 -30 55.5 -47.5t84.5 -17.5q52 0 90.5 20.5t54.5 57.5q15 34 15 141v393h75v-394q0 -79 -2.5 -106t-13.5 -54q-24 -59 -82 -91.5t-137 -32.5q-80 0 -138 32.5t-82 91.5q-11 27 -13.5 54t-2.5 106v394zM647 552h-46q55 53 60 99h-7
q-19 0 -33 14t-14 34q0 21 15.5 36t37.5 15q25 0 41 -18.5t16 -47.5q0 -58 -70 -132zM366 731h-73l-166 137h100z" />
    <glyph glyph-name="uni1EEB" unicode="&#x1eeb;" horiz-adv-x="497" 
d="M71 474h70v-290q0 -69 16 -95q25 -38 81 -38q63 0 96 53q20 34 20 101v269h70v-330q0 -79 1.5 -98.5t9.5 -45.5h-69q-8 26 -10 63q-21 -40 -50.5 -57.5t-75.5 -17.5q-96 0 -138 72q-21 35 -21 124v290zM499 378h-46q24 22 40.5 49.5t18.5 48.5h-6q-20 1 -33.5 14.5
t-13.5 32.5q0 21 15 35.5t37 14.5q25 0 40.5 -18t15.5 -48q0 -57 -68 -129zM311 547h-58l-146 137h100z" />
    <glyph glyph-name="uni1EEC" unicode="&#x1eec;" horiz-adv-x="625" 
d="M77 667h75v-393q0 -73 4 -102t17 -52q18 -30 55.5 -47.5t84.5 -17.5q52 0 90.5 20.5t54.5 57.5q15 34 15 141v393h75v-394q0 -79 -2.5 -106t-13.5 -54q-24 -59 -82 -91.5t-137 -32.5q-80 0 -138 32.5t-82 91.5q-11 27 -13.5 54t-2.5 106v394zM647 552h-46q55 53 60 99h-7
q-19 0 -33 14t-14 34q0 21 15.5 36t37.5 15q25 0 41 -18.5t16 -47.5q0 -58 -70 -132zM292 709l-1 72h15q73 0 73 50q0 23 -16 37t-43 14q-20 0 -56 -14v43q48 18 80 18q47 0 76 -25.5t29 -65.5q0 -45 -37 -68q-27 -18 -81 -18v-43h-39z" />
    <glyph glyph-name="uni1EED" unicode="&#x1eed;" horiz-adv-x="497" 
d="M71 474h70v-290q0 -69 16 -95q25 -38 81 -38q63 0 96 53q20 34 20 101v269h70v-330q0 -79 1.5 -98.5t9.5 -45.5h-69q-8 26 -10 63q-21 -40 -50.5 -57.5t-75.5 -17.5q-96 0 -138 72q-21 35 -21 124v290zM499 378h-46q24 22 40.5 49.5t18.5 48.5h-6q-20 1 -33.5 14.5
t-13.5 32.5q0 21 15 35.5t37 14.5q25 0 40.5 -18t15.5 -48q0 -57 -68 -129zM241 551l-1 72h15q73 0 73 50q0 23 -16 37t-43 14q-20 0 -56 -14v43q48 18 80 18q47 0 76 -25.5t29 -65.5q0 -45 -37 -68q-27 -18 -81 -18v-43h-39z" />
    <glyph glyph-name="uni1EEE" unicode="&#x1eee;" horiz-adv-x="625" 
d="M77 667h75v-393q0 -73 4 -102t17 -52q18 -30 55.5 -47.5t84.5 -17.5q52 0 90.5 20.5t54.5 57.5q15 34 15 141v393h75v-394q0 -79 -2.5 -106t-13.5 -54q-24 -59 -82 -91.5t-137 -32.5q-80 0 -138 32.5t-82 91.5q-11 27 -13.5 54t-2.5 106v394zM647 552h-46q55 53 60 99h-7
q-19 0 -33 14t-14 34q0 21 15.5 36t37.5 15q25 0 41 -18.5t16 -47.5q0 -58 -70 -132zM193 742l-43 16q13 50 35 73.5t57 23.5q30 0 75 -26q49 -28 68 -28q37 0 49 58l42 -16q-8 -47 -31.5 -73.5t-59.5 -26.5q-27 0 -83 31q-40 22 -60 22q-36 0 -49 -54z" />
    <glyph glyph-name="uni1EEF" unicode="&#x1eef;" horiz-adv-x="497" 
d="M71 474h70v-290q0 -69 16 -95q25 -38 81 -38q63 0 96 53q20 34 20 101v269h70v-330q0 -79 1.5 -98.5t9.5 -45.5h-69q-8 26 -10 63q-21 -40 -50.5 -57.5t-75.5 -17.5q-96 0 -138 72q-21 35 -21 124v290zM499 378h-46q24 22 40.5 49.5t18.5 48.5h-6q-20 1 -33.5 14.5
t-13.5 32.5q0 21 15 35.5t37 14.5q25 0 40.5 -18t15.5 -48q0 -57 -68 -129zM140 559l-40 10q19 104 85 104q29 0 67 -26q43 -28 61 -28q33 0 44 58l41 -10q-6 -49 -28.5 -78t-54.5 -29q-28 0 -72 28q-42 26 -59 26q-31 0 -44 -55z" />
    <glyph glyph-name="uni1EF0" unicode="&#x1ef0;" horiz-adv-x="625" 
d="M77 667h75v-393q0 -73 4 -102t17 -52q18 -30 55.5 -47.5t84.5 -17.5q52 0 90.5 20.5t54.5 57.5q15 34 15 141v393h75v-394q0 -79 -2.5 -106t-13.5 -54q-24 -59 -82 -91.5t-137 -32.5q-80 0 -138 32.5t-82 91.5q-11 27 -13.5 54t-2.5 106v394zM647 552h-46q55 53 60 99h-7
q-19 0 -33 14t-14 34q0 21 15.5 36t37.5 15q25 0 41 -18.5t16 -47.5q0 -58 -70 -132zM313 -76q25 0 43.5 -18t18.5 -44t-18 -44.5t-44 -18.5t-44.5 18t-18.5 44t18.5 44.5t44.5 18.5z" />
    <glyph glyph-name="uni1EF1" unicode="&#x1ef1;" horiz-adv-x="497" 
d="M71 474h70v-290q0 -69 16 -95q25 -38 81 -38q63 0 96 53q20 34 20 101v269h70v-330q0 -79 1.5 -98.5t9.5 -45.5h-69q-8 26 -10 63q-21 -40 -50.5 -57.5t-75.5 -17.5q-96 0 -138 72q-21 35 -21 124v290zM499 378h-46q24 22 40.5 49.5t18.5 48.5h-6q-20 1 -33.5 14.5
t-13.5 32.5q0 21 15 35.5t37 14.5q25 0 40.5 -18t15.5 -48q0 -57 -68 -129zM249 -76q25 0 43.5 -18t18.5 -44t-18 -44.5t-44 -18.5t-44.5 18t-18.5 44t18.5 44.5t44.5 18.5z" />
    <glyph glyph-name="Ygrave" unicode="&#x1ef2;" horiz-adv-x="512" 
d="M12 667h86l160 -312l157 312h86l-208 -387l1 -280h-75l1 280zM309 731h-72l-166 137h100z" />
    <glyph glyph-name="ygrave" unicode="&#x1ef3;" horiz-adv-x="438" 
d="M16 474h75l128 -395l134 395h73l-156 -441q-33 -94 -47 -123t-37 -54q-51 -56 -138 -56q-12 0 -21 1v62q68 -1 97 24t57 108zM283 547h-59l-145 137h100z" />
    <glyph glyph-name="uni1EF4" unicode="&#x1ef4;" horiz-adv-x="512" 
d="M12 667h86l160 -312l157 312h86l-208 -387l1 -280h-75l1 280zM257 -76q25 0 43.5 -18t18.5 -44t-18 -44.5t-44 -18.5t-44.5 18t-18.5 44t18.5 44.5t44.5 18.5z" />
    <glyph glyph-name="uni1EF5" unicode="&#x1ef5;" horiz-adv-x="438" 
d="M16 474h75l128 -395l134 395h73l-156 -441q-33 -94 -47 -123t-37 -54q-51 -56 -138 -56q-12 0 -21 1v62q68 -1 97 24t57 108zM315 -76q25 0 43.5 -18t18.5 -44t-18.5 -44.5t-44.5 -18.5t-44 18.5t-18 43.5q0 26 18.5 44.5t44.5 18.5z" />
    <glyph glyph-name="uni1EF6" unicode="&#x1ef6;" horiz-adv-x="512" 
d="M12 667h86l160 -312l157 312h86l-208 -387l1 -280h-75l1 280zM248 738l-1 72h15q73 0 73 50q0 23 -16 37t-43 14q-20 0 -56 -14v43q48 18 80 18q47 0 76 -25.5t29 -65.5q0 -45 -37 -68q-27 -18 -81 -18v-43h-39z" />
    <glyph glyph-name="uni1EF7" unicode="&#x1ef7;" horiz-adv-x="438" 
d="M16 474h75l128 -395l134 395h73l-156 -441q-33 -94 -47 -123t-37 -54q-51 -56 -138 -56q-12 0 -21 1v62q68 -1 97 24t57 108zM210 577v72h15q73 0 73 50q0 23 -16.5 37t-43.5 14q-16 0 -55 -13v42q48 18 80 18q47 0 76 -25.5t29 -65.5q0 -44 -37 -68q-27 -18 -81 -18v-43
h-40z" />
    <glyph glyph-name="uni1EF8" unicode="&#x1ef8;" horiz-adv-x="512" 
d="M12 667h86l160 -312l157 312h86l-208 -387l1 -280h-75l1 280zM137 742l-43 16q23 97 91 97q31 0 75 -26q49 -28 69 -28q37 0 49 58l41 -16q-8 -47 -31.5 -73.5t-59.5 -26.5q-27 0 -83 31q-39 22 -60 22q-35 0 -48 -54z" />
    <glyph glyph-name="uni1EF9" unicode="&#x1ef9;" horiz-adv-x="438" 
d="M16 474h75l128 -395l134 395h73l-156 -441q-33 -94 -47 -123t-37 -54q-51 -56 -138 -56q-12 0 -21 1v62q68 -1 97 24t57 108zM127 566l-41 9q21 104 85 104q28 0 68 -26q43 -28 61 -28q32 0 44 58l41 -10q-7 -50 -29 -78.5t-54 -28.5q-27 0 -73 28q-42 26 -58 26
q-32 0 -44 -54z" />
    <glyph glyph-name="uni2002" unicode="&#x2002;" 
 />
    <glyph glyph-name="uni2003" unicode="&#x2003;" horiz-adv-x="1000" 
 />
    <glyph glyph-name="uni2004" unicode="&#x2004;" horiz-adv-x="333" 
 />
    <glyph glyph-name="uni2005" unicode="&#x2005;" horiz-adv-x="250" 
 />
    <glyph glyph-name="uni2006" unicode="&#x2006;" horiz-adv-x="167" 
 />
    <glyph glyph-name="uni2007" unicode="&#x2007;" horiz-adv-x="533" 
 />
    <glyph glyph-name="uni2008" unicode="&#x2008;" horiz-adv-x="255" 
 />
    <glyph glyph-name="uni2009" unicode="&#x2009;" horiz-adv-x="125" 
 />
    <glyph glyph-name="uni200A" unicode="&#x200a;" horiz-adv-x="42" 
 />
    <glyph glyph-name="uni2011" unicode="&#x2011;" horiz-adv-x="274" 
d="M0 279h274v-55h-274v55z" />
    <glyph glyph-name="figuredash" unicode="&#x2012;" 
d="M70 279h360v-55h-360v55z" />
    <glyph glyph-name="endash" unicode="&#x2013;" 
d="M70 279h360v-55h-360v55z" />
    <glyph glyph-name="emdash" unicode="&#x2014;" horiz-adv-x="575" 
d="M0 279h575v-55h-575v55z" />
    <glyph glyph-name="afii00208" unicode="&#x2015;" horiz-adv-x="575" 
d="M0 279h575v-55h-575v55z" />
    <glyph glyph-name="underscoredbl" unicode="&#x2017;" 
d="M0 -58h500v-45h-500v45zM0 -175h500v-45h-500v45z" />
    <glyph glyph-name="quoteleft" unicode="&#x2018;" horiz-adv-x="223" 
d="M127 678h61q-27 -25 -47.5 -58t-23.5 -58h7q22 0 37 -15.5t15 -37.5q0 -23 -17 -39.5t-41 -16.5q-28 0 -45 20.5t-17 52.5q0 75 71 152z" />
    <glyph glyph-name="quoteright" unicode="&#x2019;" horiz-adv-x="227" 
d="M101 453h-61q64 63 71 117h-8q-22 0 -36.5 15t-14.5 38t17 39.5t41 16.5q28 0 45 -20.5t17 -52.5q0 -72 -71 -153z" />
    <glyph glyph-name="quotesinglbase" unicode="&#x201a;" horiz-adv-x="227" 
d="M101 -117h-61q28 27 48 59.5t23 56.5h-8q-21 0 -36 15.5t-15 37.5q0 23 17 39.5t41 16.5q28 0 45 -20.5t17 -52.5q0 -71 -71 -152z" />
    <glyph glyph-name="quotedblleft" unicode="&#x201c;" horiz-adv-x="379" 
d="M282 678h61q-27 -25 -47.5 -58.5t-22.5 -57.5h7q22 0 37 -15.5t15 -37.5q0 -23 -17 -39.5t-42 -16.5q-28 0 -45 20.5t-17 52.5q0 73 71 152zM127 678h61q-27 -25 -47.5 -58t-23.5 -58h7q22 0 37 -15.5t15 -37.5q0 -23 -17 -39.5t-41 -16.5q-28 0 -45 20.5t-17 52.5
q0 75 71 152z" />
    <glyph glyph-name="quotedblright" unicode="&#x201d;" horiz-adv-x="389" 
d="M96 453h-61q64 63 71 117q-27 0 -43 14t-16 39q0 23 17 39.5t41 16.5q28 0 45 -20.5t17 -53.5q0 -69 -71 -152zM262 453h-61q64 64 70 117q-59 0 -59 53q0 23 17 39.5t41 16.5q28 0 45 -20.5t17 -53.5q0 -70 -70 -152z" />
    <glyph glyph-name="quotedblbase" unicode="&#x201e;" horiz-adv-x="389" 
d="M96 -117h-61q28 27 48 59.5t23 56.5h-7q-22 0 -37 15t-15 37q0 24 17 40.5t41 16.5q28 0 45 -20.5t17 -52.5q0 -71 -71 -152zM262 -117h-61q63 60 70 116h-7q-22 0 -37 15.5t-15 37.5q0 23 17 39.5t41 16.5q28 0 45 -20.5t17 -52.5q0 -70 -70 -152z" />
    <glyph glyph-name="dagger" unicode="&#x2020;" 
d="M217 650h68v-179h177v-58h-177v-546h-68v546h-180v58h180v179z" />
    <glyph glyph-name="daggerdbl" unicode="&#x2021;" 
d="M217 650h66v-112h180v-59h-180v-421h180v-59h-180v-132h-66v132h-180v59h180v421h-180v59h180v112z" />
    <glyph glyph-name="bullet" unicode="&#x2022;" horiz-adv-x="667" 
d="M336 479q55 0 95 -41t40 -98q0 -58 -40 -99t-97 -41t-97.5 41t-40.5 98q0 59 41 99.5t99 40.5z" />
    <glyph glyph-name="ellipsis" unicode="&#x2026;" horiz-adv-x="693" 
d="M129 105q23 0 40 -17t17 -41q0 -23 -17 -40t-41 -17t-41 17t-17 40q0 25 17 41.5t42 16.5zM347 105q24 0 41 -17t17 -41q0 -23 -17 -40t-41 -17t-41 17t-17 40q0 24 17 41t41 17zM566 105q23 0 40 -17t17 -41q0 -23 -17 -40t-41 -17t-41 17t-17 40q0 24 17 41t42 17z" />
    <glyph glyph-name="perthousand" unicode="&#x2030;" horiz-adv-x="866" 
d="M451 667h62l-391 -667h-62zM424 315q53 0 89 -46.5t36 -113.5q0 -68 -36.5 -114t-89.5 -46q-54 0 -90.5 46t-36.5 114t36.5 114t91.5 46zM423 265q-31 0 -50.5 -31t-19.5 -79t19.5 -79t49.5 -31q31 0 50.5 31t19.5 79q0 47 -19.5 78.5t-49.5 31.5zM718 315q53 0 89 -46.5
t36 -113.5q0 -68 -36.5 -114t-90.5 -46q-53 0 -89.5 46t-36.5 114t36.5 114t91.5 46zM717 265q-31 0 -50.5 -30.5t-19.5 -79.5q0 -48 19.5 -79t50.5 -31q30 0 49.5 31t19.5 79q0 47 -19.5 78.5t-49.5 31.5zM152 672q52 0 88.5 -46.5t36.5 -113.5q0 -68 -36.5 -114t-89.5 -46
q-54 0 -90.5 46t-36.5 114t36.5 114t91.5 46zM151 622q-31 0 -50.5 -31t-19.5 -79t19.5 -79t50.5 -31q30 0 49.5 31t19.5 79q0 47 -19.5 78.5t-49.5 31.5z" />
    <glyph glyph-name="guilsinglleft" unicode="&#x2039;" horiz-adv-x="241" 
d="M180 0h-56l-90 233l90 241h56l-77 -241z" />
    <glyph glyph-name="guilsinglright" unicode="&#x203a;" horiz-adv-x="241" 
d="M61 474h56l90 -233l-90 -241h-56l77 241z" />
    <glyph glyph-name="exclamdbl" unicode="&#x203c;" horiz-adv-x="417" 
d="M139 667v-178l-17 -304h-41l-17 303v179h75zM140 115v-115h-77v115h77zM352 667v-178l-17 -304h-41l-17 303v179h75zM353 115v-115h-77v115h77z" />
    <glyph glyph-name="uni203E" unicode="&#x203e;" 
d="M0 861h500v-63h-500v63z" />
    <glyph glyph-name="fraction" unicode="&#x2044;" horiz-adv-x="82" 
d="M201 650h61l-381 -650h-60z" />
    <glyph glyph-name="uni205F" unicode="&#x205f;" horiz-adv-x="222" 
 />
    <glyph glyph-name="zerosuperior" unicode="&#x2070;" horiz-adv-x="351" 
d="M177 823q63 0 99.5 -54t36.5 -147q0 -94 -36.5 -147.5t-100.5 -53.5t-101 53.5t-37 146.5q0 95 36.5 148.5t102.5 53.5zM177 780q-41 0 -63 -41t-22 -118q0 -74 22 -115.5t62 -41.5q39 0 61 41.5t22 116.5q0 74 -22 116t-60 42z" />
    <glyph glyph-name="foursuperior" unicode="&#x2074;" horiz-adv-x="351" 
d="M248 565h72v-44h-71v-96h-53v96h-167v38l167 262h52v-256zM198 565l1 185l-116 -185h115z" />
    </font>
</defs>
</svg>
