<?xml version="1.0" standalone="no"?>
<!DOCTYPE svg PUBLIC "-//W3C//DTD SVG 1.1//EN" "http://www.w3.org/Graphics/SVG/1.1/DTD/svg11.dtd">
<svg xmlns="http://www.w3.org/2000/svg">
<defs>
<font id="icofont" horiz-adv-x="1000" >
<font-face font-family="IcoFont" font-weight="400" font-style="Regular" units-per-em="1000" ascent="850" descent="-150" />
<missing-glyph horiz-adv-x="1000" />
<glyph glyph-name="arrow-down" horiz-adv-x="1000" unicode="&#xea5b;" d="M772 358l-53 54c-9 8-24 8-32 0l-137-137v352c0 13-10 23-23 23h-90c-13 0-23-10-23-23v-343l-127 128c-9 8-23 8-32 0l-54-54c-8-9-8-23 0-32l270-269c9-9 23-9 32 0l269 269c9 9 9 23 0 32z" />
<glyph glyph-name="arrow-left" horiz-adv-x="1000" unicode="&#xea5c;" d="M777 422h-343l128 128c8 9 8 23 0 32l-54 53c-9 9-23 9-32 0l-269-269c-9-9-9-23 0-32l269-269c9-9 23-9 32 0l54 53c8 9 8 23 0 32l-137 137h352c13 0 23 10 23 23v90c0 12-10 22-23 22z" />
<glyph glyph-name="arrow-right" horiz-adv-x="1000" unicode="&#xea5d;" d="M223 422h343l-128 128c-8 9-8 23 0 32l54 53c9 9 23 9 32 0l269-269c9-9 9-23 0-32l-269-269c-9-9-23-9-32 0l-54 53c-8 9-8 23 0 32l137 137h-352c-13 0-23 10-23 23v90c0 12 10 22 23 22z" />
<glyph glyph-name="arrow-up" horiz-adv-x="1000" unicode="&#xea5e;" d="M427 73v343l-127-128c-9-8-23-8-32 0l-54 54c-8 9-8 23 0 32l270 269c9 9 23 9 32 0l269-269c9-9 9-23 0-32l-53-54c-9-8-23-8-32 0l-137 137v-352c0-13-10-23-23-23h-90c-13 0-23 10-23 23z" />
<glyph glyph-name="block-down" horiz-adv-x="1000" unicode="&#xea5f;" d="M937-88v876h-875v-876h875z m-117 590l-320-329-320 329 26 25 294-303 294 303 26-25z" />
<glyph glyph-name="block-left" horiz-adv-x="1000" unicode="&#xea60;" d="M62-86h875v876h-875v-876z m615 732l-303-294 303-294-25-26-329 320 329 320 25-26z" />
<glyph glyph-name="block-right" horiz-adv-x="1000" unicode="&#xea61;" d="M938 788h-876v-876h875v876z m-615-732l303 294-303 294 25 26 329-320-329-320-25 26z" />
<glyph glyph-name="block-up" horiz-adv-x="1000" unicode="&#xea62;" d="M62 788v-876h875v876h-875z m732-615l-294 303-294-303-26 25 320 329 320-329-26-25z" />
<glyph glyph-name="bubble-down" horiz-adv-x="1000" unicode="&#xea63;" d="M511 175c-6-6-16-6-22 0l-130 130c-6 6-16 6-23 0l-37-38c-7-6-7-16 0-22l190-190c6-6 16-6 22 0l190 190c6 6 6 16 0 22l-38 38c-6 6-16 6-22 0l-130-130z m72 154c0-46-37-83-83-83s-83 37-83 83 37 83 83 83 83-37 83-83z m-23 159c0-33-27-60-60-60s-60 27-60 60c0 33 27 60 60 60 33 0 60-27 60-60z m-17 119c0-24-19-44-43-44s-44 20-44 44 20 43 44 43 43-19 43-43z" />
<glyph glyph-name="bubble-left" horiz-adv-x="1000" unicode="&#xea64;" d="M325 339c-6 6-6 16 0 22l130 130c6 6 6 16 0 23l-38 37c-6 7-16 7-22 0l-190-190c-6-6-6-16 0-22l190-190c6-6 16-6 22 0l38 38c6 6 6 16 0 22l-130 130z m237 11c0-46-37-83-83-83s-83 37-83 83 37 83 83 83 83-37 83-83z m136 0c0-33-27-60-60-60s-60 27-60 60c0 33 27 60 60 60s60-27 60-60z m102 0c0-24-19-43-43-43s-44 19-44 43 20 43 44 43 43-19 43-43z" />
<glyph glyph-name="bubble-right" horiz-adv-x="1000" unicode="&#xea65;" d="M675 339c6 6 6 16 0 23l-130 129c-6 6-6 17 0 23l38 38c6 6 16 6 22 0l190-190c7-7 7-17 0-23l-190-190c-6-6-16-6-22 0l-38 38c-6 6-6 16 0 22l130 130z m-70 11c0-46-38-83-84-83s-83 37-83 83c0 46 38 83 83 83s84-37 84-83z m-183 0c0-33-27-60-60-60s-60 27-60 60 27 60 60 60 60-26 60-60z m-135 0c0-24-20-43-44-43s-43 19-43 43 19 44 43 44 44-20 44-44z" />
<glyph glyph-name="bubble-up" horiz-adv-x="1000" unicode="&#xea66;" d="M511 525c-6 6-16 6-22 0l-130-130c-6-6-16-6-23 0l-37 38c-7 6-7 16 0 22l190 190c6 7 16 7 22 0l190-190c6-6 6-16 0-22l-38-38c-6-6-16-6-22 0l-130 130z m72-154c0-45-37-83-83-83s-83 38-83 83 37 84 83 84 83-38 83-84z m-23-159c0-33-27-60-60-60s-60 27-60 60c0 33 27 60 60 60 33 0 60-27 60-60z m-17-119c0-24-19-43-43-43s-44 19-44 43 20 44 44 44 43-20 43-44z" />
<glyph glyph-name="caret-down" horiz-adv-x="1000" unicode="&#xea67;" d="M534 213l255 254c19 19 13 35-14 35h-550c-27 0-33-16-14-35l255-254c19-19 49-19 68 0z" />
<glyph glyph-name="caret-left" horiz-adv-x="1000" unicode="&#xea68;" d="M362 384l255 255c19 19 34 13 34-14v-550c0-27-15-33-34-14l-255 255c-19 19-19 49 0 68z" />
<glyph glyph-name="caret-right" horiz-adv-x="1000" unicode="&#xea69;" d="M637 384l-255 255c-18 19-34 13-34-14v-550c0-27 16-33 34-14l255 255c19 19 19 49 0 68z" />
<glyph glyph-name="caret-up" horiz-adv-x="1000" unicode="&#xea6a;" d="M534 487l255-255c19-18 13-34-14-34h-550c-27 0-33 15-14 34l255 255c19 19 49 19 68 0z" />
<glyph glyph-name="circled-down" horiz-adv-x="1000" unicode="&#xea6b;" d="M63 350c0-241 196-438 437-438s438 197 438 438-196 438-438 438-437-196-437-438z m460-40l202 202c9 9 25 9 35 0l59-59c9-10 9-26 0-35l-296-296c-10-10-26-10-35 0l-296 296c-10 9-10 25 0 35l59 59c9 9 25 9 35 0l202-202c9-10 25-10 35 0z" />
<glyph glyph-name="circled-left" horiz-adv-x="1000" unicode="&#xea6c;" d="M500 788c-241 0-437-196-437-438s196-438 437-438 438 197 438 438-196 438-438 438z m-40-461l202-202c9-9 9-25 0-35l-59-59c-10-9-26-9-35 0l-296 296c-10 10-10 26 0 35l296 296c9 10 25 10 35 0l59-58c9-10 9-26 0-36l-202-202c-10-9-10-25 0-35z" />
<glyph glyph-name="circled-right" horiz-adv-x="1000" unicode="&#xea6d;" d="M63 350c0-241 196-438 437-438s438 197 438 438-196 438-438 438-437-196-437-438z m477 12l-202 202c-9 10-9 26 0 36l59 58c10 10 26 10 35 0l296-296c10-9 10-25 0-35l-296-296c-9-9-25-9-35 0l-59 59c-9 10-9 26 0 35l202 202c10 10 10 26 0 35z" />
<glyph glyph-name="circled-up" horiz-adv-x="1000" unicode="&#xea6e;" d="M500-88c242 0 438 197 438 438s-196 438-438 438-437-196-437-438 196-438 437-438z m-12 478l-202-202c-10-9-26-9-35 0l-59 59c-10 10-10 26 0 35l296 296c9 10 25 10 35 0l296-296c9-9 9-25 0-35l-59-59c-10-9-26-9-35 0l-202 202c-10 10-26 10-35 0z" />
<glyph glyph-name="collapse" horiz-adv-x="1000" unicode="&#xea6f;" d="M702 593l-57 57-145-144-144 144-58-57 202-202z m-404-486l58-57 144 145 145-145 57 57-202 202z" />
<glyph glyph-name="cursor-drag" horiz-adv-x="1000" unicode="&#xea70;" d="M532 364c9 4 17 9 23 16 14 13 22 30 23 49h248l-125-122 10-10 142 138-142 138-10-11 125-122h-248c-1 19-9 37-22 50s-31 21-50 22v249l122-126 10 11-138 142-138-142 11-11 121 126v-249c-37-4-67-34-70-71h-250l125 121-10 11-142-138 142-138 10 10-125 122h250c3-35 28-64 62-70l-13-336 92 81 92-191 62 29-87 186 123-5-223 241z m-95 71c0 16 6 32 17 44 11 11 26 19 42 20h10c34-3 60-30 60-64 0-28-18-52-43-61l-35 37-1-39c-29 6-50 32-50 63z" />
<glyph glyph-name="curved-double-left" horiz-adv-x="1000" unicode="&#xea71;" d="M494 554c5 10 5 27 0 37l-27 52c-6 10-14 10-20 0l-144-275c-6-10-6-26 0-36l144-274c6-10 14-10 19 0l28 51c5 10 5 27 0 37l-98 186c-6 10-6 26 0 36l98 186z m105-222c-5 10-5 26 0 36l99 186c5 10 5 27 0 37l-28 52c-5 10-14 10-19 0l-145-275c-5-10-5-26 0-36l145-274c5-10 14-10 19 0l28 51c5 10 5 27 0 37l-99 186z" />
<glyph glyph-name="curved-double-right" horiz-adv-x="1000" unicode="&#xea72;" d="M506 554c-5 10-5 27 0 37l28 52c5 10 14 10 19 0l145-275c5-10 5-26 0-36l-145-274c-5-10-14-10-19 0l-28 51c-5 10-5 27 0 37l99 186c5 10 5 26 0 36l-99 186z m-105-222c5 10 5 26 0 36l-98 186c-6 10-6 27 0 37l27 52c5 10 14 10 19 0l145-275c5-10 5-26 0-36l-145-274c-5-10-14-10-19 0l-27 51c-6 10-6 27 0 37l98 186z" />
<glyph glyph-name="curved-down" horiz-adv-x="1000" unicode="&#xea73;" d="M793 418l-52 28c-10 5-27 5-37 0l-186-99c-10-5-26-5-36 0l-186 99c-10 5-27 5-37 0l-51-28c-10-5-10-14 0-19l274-145c10-5 26-5 36 0l275 145c10 5 10 14 0 19z" />
<glyph glyph-name="curved-left" horiz-adv-x="1000" unicode="&#xea74;" d="M549 642l-145-274c-5-10-5-26 0-36l145-274c5-10 14-10 19 0l28 51c5 11 5 27 0 37l-99 186c-5 10-5 26 0 36l99 186c5 10 5 27 0 37l-28 52c-5 10-14 10-19-1z" />
<glyph glyph-name="curved-right" horiz-adv-x="1000" unicode="&#xea75;" d="M432 642l-28-51c-5-10-5-27 0-37l99-186c5-10 5-26 0-36l-99-186c-5-10-5-27 0-37l28-51c5-11 14-11 19 0l145 274c5 10 5 26 0 36l-145 274c-5 11-14 11-19 0z" />
<glyph glyph-name="curved-up" horiz-adv-x="1000" unicode="&#xea76;" d="M784 301l-274 145c-10 5-27 5-37 0l-274-145c-10-5-10-14 0-19l52-28c10-5 26-5 36 0l186 99c10 5 26 5 37 0l186-99c10-5 26-5 36 0l52 28c10 5 10 14 0 19z" />
<glyph glyph-name="dotted-down" horiz-adv-x="1000" unicode="&#xea77;" d="M678 360c-19 0-34 15-34 34 0 19 15 34 34 34 19 0 34-15 34-34 0-19-15-34-34-34z m-178 0c-19 0-34 15-34 34 0 19 15 34 34 34 19 0 34-15 34-34 0-19-15-34-34-34z m-88 0c-19 0-34 15-34 34 0 19 15 34 34 34 18 0 33-15 33-34 0-19-15-34-33-34z m-90 0c-18 0-33 15-33 34 0 19 15 34 33 34 19 0 34-15 34-34 0-19-15-34-34-34z m90-88c-19 0-34 15-34 33 0 19 15 34 34 34 18 0 33-15 33-34 0-18-15-33-33-33z m177 0c-18 0-34 15-34 33 0 19 16 34 34 34 18 0 33-15 33-34 0-18-15-33-33-33z m-355 177c-19 0-34 15-34 34 0 18 15 34 34 34 19 0 34-16 34-34 0-19-15-34-34-34z m266-266c-19 0-34 15-34 34 0 18 15 34 34 34 19 0 34-16 34-34 0-19-15-34-34-34z m0 89c-19 0-34 15-34 33 0 19 15 34 34 34 19 0 34-15 34-34 0-18-15-33-34-33z m89 88c-18 0-34 15-34 34 0 19 16 34 34 34 18 0 33-15 33-34 0-19-15-34-33-34z m177 89c-18 0-34 15-34 34 0 18 15 34 34 34 19 0 34-16 34-34 0-19-15-34-34-34z m-444 0c-18 0-33 15-33 34 0 18 15 34 33 34 19 0 34-16 34-34 0-19-15-34-34-34z m356 0c-19 0-34 15-34 34 0 18 15 34 34 34 19 0 34-16 34-34 0-19-15-34-34-34z m-178 0c-19 0-34 15-34 34 0 18 15 34 34 34 19 0 34-16 34-34 0-19-15-34-34-34z m89 0c-18 0-34 15-34 34 0 18 16 34 34 34 18 0 33-16 33-34 0-19-15-34-33-34z m-177 0c-19 0-34 15-34 34 0 18 15 34 34 34 18 0 33-16 33-34 0-19-15-34-33-34z" />
<glyph glyph-name="dotted-left" horiz-adv-x="1000" unicode="&#xea78;" d="M510 528c0-19 15-34 34-34 19 0 34 15 34 34 0 19-15 34-34 34-19 0-34-15-34-34z m0-178c0-19 15-34 34-34 19 0 34 15 34 34 0 19-15 34-34 34-19 0-34-15-34-34z m0-88c0-19 15-34 34-34 19 0 34 15 34 34 0 18-15 33-34 33-19 0-34-15-34-33z m0-90c0-18 15-33 34-33 19 0 34 15 34 33 0 19-15 34-34 34-19 0-34-15-34-34z m-88 90c0-19 15-34 33-34 19 0 34 15 34 34 0 18-15 33-34 33-18 0-33-15-33-33z m0 177c0-18 15-34 33-34 19 0 34 16 34 34 0 18-15 33-34 33-18 0-33-15-33-33z m177-355c0-19 15-34 34-34 18 0 34 15 34 34 0 19-16 34-34 34-19 0-34-15-34-34z m-266 266c0-19 15-34 34-34 18 0 34 15 34 34 0 19-16 34-34 34-19 0-34-15-34-34z m89 0c0-19 15-34 33-34 19 0 34 15 34 34 0 19-15 34-34 34-18 0-33-15-33-34z m88 89c0-18 15-34 34-34 19 0 34 16 34 34 0 18-15 33-34 33-19 0-34-15-34-33z m89 177c0-18 15-34 34-34 18 0 34 15 34 34s-16 34-34 34c-19 0-34-15-34-34z m0-444c0-18 15-33 34-33 18 0 34 15 34 33 0 19-16 34-34 34-19 0-34-15-34-34z m0 356c0-19 15-34 34-34 18 0 34 15 34 34 0 19-16 34-34 34-19 0-34-15-34-34z m0-178c0-19 15-34 34-34 18 0 34 15 34 34 0 19-16 34-34 34-19 0-34-15-34-34z m0 89c0-18 15-34 34-34 18 0 34 16 34 34 0 18-16 33-34 33-19 0-34-15-34-33z m0-177c0-19 15-34 34-34 18 0 34 15 34 34 0 18-16 33-34 33-19 0-34-15-34-33z" />
<glyph glyph-name="dotted-right" horiz-adv-x="1000" unicode="&#xea79;" d="M490 528c0-19-15-34-34-34-19 0-34 15-34 34 0 19 15 34 34 34 19 0 34-15 34-34z m0-178c0-19-15-34-34-34-19 0-34 15-34 34 0 19 15 34 34 34 19 0 34-15 34-34z m0-88c0-19-15-34-34-34-19 0-34 15-34 34 0 18 15 33 34 33 19 0 34-15 34-33z m0-90c0-18-15-33-34-33-19 0-34 15-34 33 0 19 15 34 34 34 19 0 34-15 34-34z m88 90c0-19-15-34-33-34-19 0-34 15-34 34 0 18 15 33 34 33 18 0 33-15 33-33z m0 177c0-18-15-34-33-34-19 0-34 16-34 34 0 18 15 33 34 33 18 0 33-15 33-33z m-177-355c0-19-15-34-34-34-18 0-34 15-34 34 0 19 16 34 34 34 19 0 34-15 34-34z m266 266c0-19-15-34-34-34-18 0-34 15-34 34 0 19 16 34 34 34 19 0 34-15 34-34z m-89 0c0-19-15-34-33-34-19 0-34 15-34 34 0 19 15 34 34 34 18 0 33-15 33-34z m-88 89c0-18-15-34-34-34-19 0-34 16-34 34 0 18 15 33 34 33 19 0 34-15 34-33z m-89 177c0-18-15-34-34-34-18 0-34 15-34 34s16 34 34 34c19 0 34-15 34-34z m0-444c0-18-15-33-34-33-18 0-34 15-34 33 0 19 16 34 34 34 19 0 34-15 34-34z m0 356c0-19-15-34-34-34-18 0-34 15-34 34 0 19 16 34 34 34 19 0 34-15 34-34z m0-178c0-19-15-34-34-34-18 0-34 15-34 34 0 19 16 34 34 34 19 0 34-15 34-34z m0 89c0-18-15-34-34-34-18 0-34 16-34 34 0 18 16 33 34 33 19 0 34-15 34-33z m0-177c0-19-15-34-34-34-18 0-34 15-34 34 0 18 16 33 34 33 19 0 34-15 34-33z" />
<glyph glyph-name="dotted-up" horiz-adv-x="1000" unicode="&#xea7a;" d="M678 340c-19 0-34-15-34-34 0-19 15-34 34-34 19 0 34 15 34 34 0 19-15 34-34 34z m-178 0c-19 0-34-15-34-34 0-19 15-34 34-34 19 0 34 15 34 34 0 19-15 34-34 34z m-88 0c-19 0-34-15-34-34 0-19 15-34 34-34 18 0 33 15 33 34 0 19-15 34-33 34z m-90 0c-18 0-33-15-33-34 0-19 15-34 33-34 19 0 34 15 34 34 0 19-15 34-34 34z m90 88c-19 0-34-15-34-33 0-19 15-34 34-34 18 0 33 15 33 34 0 18-15 33-33 33z m177 0c-18 0-34-15-34-33 0-19 16-34 34-34 18 0 33 15 33 34 0 18-15 33-33 33z m-355-177c-19 0-34-15-34-34 0-18 15-34 34-34 19 0 34 16 34 34 0 19-15 34-34 34z m266 266c-19 0-34-15-34-34 0-18 15-34 34-34 19 0 34 16 34 34 0 19-15 34-34 34z m0-89c-19 0-34-15-34-33 0-19 15-34 34-34 19 0 34 15 34 34 0 18-15 33-34 33z m89-88c-18 0-34-15-34-34 0-19 16-34 34-34 18 0 33 15 33 34 0 19-15 34-33 34z m177-89c-18 0-34-15-34-34 0-18 15-34 34-34 19 0 34 16 34 34 0 19-15 34-34 34z m-444 0c-18 0-33-15-33-34 0-18 15-34 33-34 19 0 34 16 34 34 0 19-15 34-34 34z m356 0c-19 0-34-15-34-34 0-18 15-34 34-34 19 0 34 16 34 34 0 19-15 34-34 34z m-178 0c-19 0-34-15-34-34 0-18 15-34 34-34 19 0 34 16 34 34 0 19-15 34-34 34z m89 0c-18 0-34-15-34-34 0-18 16-34 34-34 18 0 33 16 33 34 0 19-15 34-33 34z m-177 0c-19 0-34-15-34-34 0-18 15-34 34-34 18 0 33 16 33 34 0 19-15 34-33 34z" />
<glyph glyph-name="double-left" horiz-adv-x="1000" unicode="&#xea7b;" d="M428 578l65-65-164-163 164-163-65-65-228 228 228 228z m372-65l-163-163 163-163-65-65-228 228 228 228 65-65z" />
<glyph glyph-name="double-right" horiz-adv-x="1000" unicode="&#xea7c;" d="M572 578l-65-65 164-163-164-163 65-65 228 228-228 228z m-372-65l163-163-163-163 65-65 228 228-228 228-65-65z" />
<glyph glyph-name="expand-alt" horiz-adv-x="1000" unicode="&#xea7d;" d="M500 165l-144 144-58-57 202-202 202 202-57 57-145-144z m0 371l145-145 57 57-202 202-202-202 57-57 145 145z" />
<glyph glyph-name="hand-down" horiz-adv-x="1000" unicode="&#xea7e;" d="M775 552c-7 9-9 23-12 36-6 21-11 42-16 64-3 12-8 18-22 18-86-1-173-1-260 0-12 0-18-4-21-16-10-40-21-79-33-117-3-10-9-21-17-28-58-51-117-101-175-151-17-15-27-32-21-55 5-23 18-37 40-44 19-6 36 0 51 13 27 22 53 45 79 67 3 2 6 4 9 5 5 2 11-1 12-6 2-3 2-6 2-10 0-104 0-208 0-312v-41c0-38 20-62 52-62 30-1 53 24 53 61 0 14 0 28 0 42v194c0 4 1 8 1 11 1 7 3 12 5 12 2 1 5-3 6-8 1-3 1-6 1-9 1-37 0-74 1-110 0-29 17-50 43-51 25-1 45 16 47 44 2 41 1 81 2 122 0 4 0 7 0 11 1 3 1 5 2 7 1 4 5 5 7 3 1-2 2-4 2-5 1-4 2-6 2-10 0-31 0-62 0-93 0-27 15-44 40-45 24-1 46 19 46 45 1 43 0 87 1 130 0 3 0 6 1 9 1 5 4 10 6 10 2 0 4-5 5-10 0-3 1-6 1-9 0-31 0-61 0-92 0-24 13-39 36-43 20-3 42 9 48 29 3 10 4 20 4 30 1 92 1 184 1 276-1 32-7 62-29 88z m-305 143h256c15 0 27 12 27 28v37c0 15-12 27-27 27h-256c-15 0-27-12-27-27v-37c0-16 12-28 27-28z" />
<glyph glyph-name="hand-drag" horiz-adv-x="1000" unicode="&#xea7f;" d="M783 313c0 8-1 17-3 25-6 16-24 27-41 24-20-3-31-16-31-36 0-25 0-51 0-76 0-2 0-5-1-8-1-4-2-8-4-8s-4 4-5 8c0 3-1 5-1 8 0 36 0 72 0 108-1 21-19 38-40 37-21-1-33-14-33-37 0-26 0-52-1-78 0-2 0-5-1-7-1-2-1-3-2-4-1-2-5-1-6 2-1 1-1 3-1 5-1 4-1 7-1 10 0 34 1 68-1 101-2 24-19 38-41 37-21-1-36-18-36-42 0-31 0-61 0-92 0-2-1-5-2-7-1-4-3-8-5-7s-3 4-4 10c0 3 0 6 0 9v161l-1 26c6 6 10 13 14 20h121l-50-50c-4-4-4-9 0-12l19-20c4-3 9-3 12 0l100 99c3 4 3 9 0 12l-100 100c-3 3-8 3-11 0l-20-20c-3-3-3-8 0-12l47-47h-120c-6 14-18 25-32 31v122l50-51c3-3 9-3 12 0l20 20c3 3 3 8 0 12l-100 99c-3 3-8 3-12 0l-99-99c-3-3-3-9 0-12l20-20c3-3 8-3 12 0l47 47v-120c-13-6-23-16-29-29h-120l47 47c3 4 3 9 0 12l-20 20c-3 3-8 3-12 0l-99-100c-3-3-3-8 0-11l99-100c3-3 9-3 12 0l20 20c3 3 3 8 0 12l-51 50h122c3-7 8-14 13-20v-26c0-86 0-173 0-259 0-3-1-6-2-8-1-5-6-7-10-5-3 1-5 2-7 3-23 19-45 38-68 57-12 10-27 15-43 10-19-5-30-17-35-36-4-19 4-34 18-46 50-42 100-84 149-126 7-6 12-14 15-23 10-32 19-64 28-97 2-10 7-14 18-14 73 1 147 1 220 0 12 0 16 5 19 15 3 18 8 36 13 54 3 10 4 22 10 29 19 22 24 47 25 74 0 76 0 153-1 229z" />
<glyph glyph-name="hand-drag1" horiz-adv-x="1000" unicode="&#xea80;" d="M807 361c0 10-1 19-4 28-6 19-27 30-46 27-22-4-34-18-34-40-1-28 0-57-1-85 0-3 0-6-1-9 0-5-2-9-4-9-2 0-5 4-6 9 0 3-1 6-1 9 0 40 0 80 0 120-1 24-21 43-44 42-24 0-38-16-38-42 0-29 0-57 0-86 0-3-1-6-2-9 0-2-1-3-2-4-2-3-6-1-7 2-1 2-1 4-1 6 0 4-1 7-1 11 0 38 1 76-2 113-1 27-21 43-45 41-24-1-40-20-41-47 0-34 1-68 0-102 0-3 0-6-1-9-1-5-4-8-6-8-2 0-4 5-4 11-1 4-1 8-1 11 0 60 0 120 0 181 0 13 0 26 0 39 0 34-22 57-51 57-30 0-49-22-49-58v-38c0-97 0-194 0-291 0-3-1-6-2-9-1-5-6-8-11-6-3 1-6 3-9 4-25 21-50 43-75 64-14 11-30 17-49 11-20-6-33-19-38-40-5-22 4-38 20-52 55-47 111-93 166-141 8-6 14-16 17-25 11-36 22-73 31-109 3-12 9-15 20-15 83 0 165 0 247-1 13 0 19 6 21 17 5 20 10 40 15 60 3 11 5 25 12 33 20 24 27 52 27 82 0 86 0 172 0 257z m-341 312c88 0 159-71 159-158h26c0 102-83 184-185 184s-185-82-185-184c0-44 15-84 40-116l20 18c-21 27-34 61-34 98 0 87 71 158 159 158z m-197-302c4 1 7 2 10 2-30 39-47 88-47 141 0 130 105 235 234 235s234-105 234-235c0 0 0 0 0-1 0 0 0 0 0-1l1 0 38-5c0 2 0 5 0 8 0 150-122 273-273 273-151 0-273-123-273-274 0-59 19-113 51-158 6 7 15 12 25 15z" />
<glyph glyph-name="hand-drag2" horiz-adv-x="1000" unicode="&#xea81;" d="M815 386c-6 18-25 28-43 26-20-4-32-17-32-38 0-26 0-53 0-79 0-3 0-6-1-8-1-5-3-8-4-9-2 0-4 4-5 9-1 2-1 5-1 8-1 37 0 75-1 112 0 23-19 40-41 39-22 0-35-15-35-39 0-27 0-54 0-81 0-2-1-5-2-7 0-2-1-4-2-5-1-2-5-1-6 2-1 2-1 4-1 6-1 4-1 7-1 10-1 36 0 71-2 106-1 24-19 39-42 38-22-1-38-19-38-44 0-32 0-63 0-95 0-3-1-6-1-8-1-5-4-8-6-8s-3 5-4 11c0 3 0 7-1 10v168c0 12 0 24 0 37 0 32-20 53-47 53-28 0-45-21-45-54v-36c0-90 0-181 0-271 0-3-1-5-2-8-2-5-6-7-11-5-3 1-5 2-8 4-23 19-47 39-70 58-13 11-28 16-45 11-19-6-31-18-36-38-4-20 4-35 19-48 51-43 104-87 155-131 7-6 13-15 15-24 11-33 21-67 29-101 3-11 9-14 19-14 77 0 154 0 230 0 12-1 17 4 20 15 4 19 8 37 13 56 3 10 5 23 11 31 20 22 26 48 26 76 0 80 0 160 0 239 0 9-1 18-4 26z m-314 265c82 0 148-66 148-148h24c0 95-77 172-172 172s-172-77-172-172c0-40 14-78 38-107l18 16c-20 25-32 57-32 91 0 82 67 148 148 148z m435-37l-74 140c-3 5-7 5-10 0l-14-27c-2-5-2-13 0-18l41-77h-159c-44 75-125 125-219 125-94 0-176-51-220-127v2h-160l41 77c2 5 2 13 0 18l-14 27c-3 5-7 5-10 0l-73-140c-3-5-3-13 0-18l73-140c3-5 7-5 10 0l14 27c3 5 3 13 0 18l-41 78h138c-8-24-12-49-12-76 0-55 17-106 47-148 6 7 14 12 24 14 3 1 6 2 9 2-28 37-44 83-44 132 0 121 98 219 218 219s218-98 218-219c0 0 0-1 0-1 0 0 0-1 0-1l1 0 35-5c0 2 0 5 0 7 0 27-4 52-11 76h135l-41-78c-2-5-2-13 0-18l14-27c3-5 7-5 10 0l74 140c2 5 2 13 0 18z" />
<glyph glyph-name="hand-drawn-alt-down" horiz-adv-x="1000" unicode="&#xea82;" d="M220 648c6 0 12-4 15-8l265-265 266 267c6 5 15 7 22 4 7-3 12-10 12-18v-280c0-6-2-11-6-14l-280-281-1 0h-26l-281 281c-4 3-6 8-6 13v282c0 10 9 19 20 19z m-14-19l1-1-1-1v-280c0-3 1-7 4-9l279-280h22l279 280c3 2 4 6 4 9v281c0 5-3 10-8 12-6 2-12 1-16-3l-268-268-2-2-269 269c-3 4-7 6-11 6-8 0-13-6-14-13z m28-35l256-256c1-1 3-2 5-3h0l1-1c1 0 2 0 4 0l3 0 2 1c2 1 4 2 5 3l63 64 5-4-69-97-5 3c9 18 8 19 8 21-1 2-3 4-5 4h-1l-2 1-3-2c0 0-1-1-1-1l-14-16c-10-12-22-25-33-38l-16-19 39 76c2 3 0 8-3 10-1 0-2 1-3 1-1 0-3-2-7-6l-1 0c-6-6-16-18-34-37l-15-18 38 75c1 1 1 2 1 3 0 2-1 4-3 6-3 2-7 1-9-1l-60-63 10 19c7 14 14 27 20 37 15 29 15 29 14 32-1 2-2 3-4 4-1 1-2 1-3 1-1 0-4-1-7-5l0 0c-4-5-10-12-18-22l-5 3 17 33c1 2 1 3 0 5 0 2-2 4-3 4-2 1-2 1-3 1-1 0-4-1-7-5l-2 0 0-1c-1-1-2-2-2-4-3-4-6-10-18-18l-5-3v5l0 1c8 18 13 28 16 33 3 6 3 7 3 8-1 3-3 4-4 5-3 0-6-1-7-2l-59-62 10 19c32 61 34 64 32 68 0 3-2 4-5 5-2 1-5 0-7-2-10-12-22-26-33-39l-17-19 12 22c26 51 27 54 26 57-1 3-3 5-5 5-3 1-5 0-7-2-10-10-23-23-36-36l-13-13 8 17c26 50 27 53 26 56 0 2-2 4-3 4-2 1-4 1-6 1l-37-12 3 6c10 19 13 25 14 28l-7-2-8 2c-4-7-14-27-21-40l-4-8 3-4c2-2 5-2 8-2l38 13-3-6c-11-22-29-56-42-82l-4-7 3-4c1-1 2-1 2-2 1 0 2 0 3 0 4 0 16 11 43 38l13 13-8-17c-12-23-26-49-37-70-1-1-1-3 0-5 0-2 2-3 3-4 1-1 2-1 3-1 1 0 3 1 7 5l1 1c6 5 15 15 32 34l16 19-11-22c-27-52-28-53-27-57 1-2 3-4 5-4 3-1 5 0 7 2l59 62-9-18c-11-21-22-43-32-62l-1-3c-2-3-1-7 2-9 3-2 7-1 10 2 7 9 15 20 24 30l18 23-33-66c-2-3-1-8 3-10 1 0 2-1 3-1 1 0 3 2 7 5l0 1c4 4 9 10 15 18l5-3c-16-31-15-32-14-35 0-1 2-3 3-4 3-1 7-1 9 2l57 60-9-18c-30-59-33-65-32-68 0-1 2-3 3-4 2 0 2-1 3-1 1 0 4 2 8 6 2 2 6 7 12 13 6 6 13 14 22 25l15 17-38-75c-2-3-1-8 3-10 1 0 2 0 2 0 2 0 4 1 8 5 8 7 19 20 44 49l17 19-12-22c-12-24-25-48-35-68-1-2-1-4-1-5 1-2 2-3 4-4 3-2 7-1 9 2l94 132 5-3c-23-45-53-103-80-153-1-3-1-4-1-6 1-2 2-3 4-4 1-1 2-1 3-1 0 0 2 1 6 5l1 2 1 0 1 2c14 17 42 62 110 172l5-3c-3-6-6-12-9-18l-18-34c-44-88-63-124-70-140l-2-2 1 0-1-3c-2-3-2-4-2-5l15-9-3 6 90 152 5-3c-58-114-75-148-80-162l0-1-4-5-1 0-9-9-266 265 0 1v241z m5-87c9 17 16 30 17 32l1 2 11-3 11 3-40 39v-73z m31 3l24 7c3 1 6 1 9 0l-23 23 0-1c2-5 2-7-10-29z m22-46c9 9 16 16 23 23 4 4 8 5 13 4 0 0 1-1 1-1l-19 20c0 0 0-1 0-1 2-5 2-6-18-45z m29-22c7 7 13 14 18 20 3 4 8 5 13 4 0 0 1 0 2 0l-17 17c0 0 0-1 0-1 1-4 2-6-16-40z m-77 32c-2 0-3 1-5 1v-56c11 21 24 46 34 64l-25-8c-1 0-3-1-4-1z m94-71l30 31c3 4 8 5 12 4 1 0 1 0 2-1l-21 22 0-1c2-6 2-6-23-55z m37-8c4 4 5 7 7 10 1 2 2 3 3 5l1 1 2 2 0 0c7 6 11 6 15 4l-15 15c0-1 0-2 1-3 1-3 0-4-4-12-2-4-5-11-10-22z m-132-9c-1 0-3 0-4 1v-31l261-261 5 5-22 14-1 1 0 1c-1 2-1 3 0 7l-1 0 5 8c7 15 24 49 65 129-42-67-62-99-73-112l-3-7-2 0c-4-3-6-5-9-5-2 0-4 1-5 2-3 1-6 4-7 7-1 4 0 7 1 10 20 38 41 79 61 117l-70-99c-4-5-12-7-18-3-3 1-5 5-6 8 0 3 0 6 2 9 7 13 15 29 23 45-14-16-22-25-28-30l0-1c-5-4-8-6-12-6-2 0-3 1-5 1-6 4-9 11-5 18l16 33c-2-2-4-5-5-7-7-6-10-10-13-13-6-6-9-8-12-8-2 0-4 1-5 2-4 2-6 5-7 8-1 4-2 5 23 54l-29-31c-4-4-10-5-15-3-3 2-6 4-7 8-1 3-1 5 3 15v0l0 0c-4-4-7-5-10-5-2 0-4 0-6 1-3 2-5 5-6 8-1 3-1 7 1 10l7 14c-2-2-4-5-6-7-4-6-12-7-17-3-6 3-8 10-5 16l2 4c6 13 14 28 22 43l-31-33c-3-3-8-5-13-4-4 1-8 5-9 9-2 5-2 6 16 40-7-8-12-13-16-17l-2-3-1 1c-4-4-7-6-10-6-2 0-3 1-5 2-3 2-5 4-6 8-1 3-1 7 0 10 9 15 19 35 28 54-24-25-29-28-34-28z m162 4c0 0 0 1 0 1l1 2 1 0c7 7 11 7 15 5l-12 12c0 0 0-1 0-1 1-3 1-7-1-10l-4-9z m0-56l31 33c3 3 9 5 14 3l-21 20 1-1c1-5 1-5-15-36-3-5-6-12-10-19z m108-1c2-2 4-4 5-7 0-1 0-2 0-3l35 50-39-39c0-1-1-1-1-1z m-73-14c8 9 14 15 18 19l2 3 0 0c5 4 8 5 10 5 2 0 3 0 5-1l-18 18c1-2 1-4 1-5 0-2 0-4-1-6l-17-33z m25-24c6 7 12 14 17 20l12 14 0 0h-1l-1 0c-2 1-4 3-6 5l-4 4c1-3 1-7-1-11l-16-32z m41-181l4-6c4 10 14 31 36 74l-40-68z m258 478l-107-182-5 3c28 55 40 79 45 90 1 4 2 6 2 7 0 0 0 1 0 1 0 2-2 3-3 4l-2 1-4 1 74 75z m-64-73c2-1 4-4 5-6 0-1 0-2 0-3 0-2-1-4-3-9-1-3-3-7-5-11l38 65-35-36z m67 47v-29l-3-5c-9-13-25-39-63-104l-5 3c21 39 38 73 51 97 6 11 10 20 14 28l6 10z m-18-47c4 7 7 12 10 16l2 2v5c-3-5-6-10-9-17-1-2-2-4-3-6z m18-14v-41l-1-1c0 0 0-1-1-3-6-7-13-20-26-40l-49-79-6 3 83 161z m-47-104l14 22c13 21 21 33 26 40l1 2v15l-41-79z m-51 96l5-3c-15-23-41-63-92-146l-5 3c15 30 24 49 29 60l0 2c2 5 2 6 2 7-1 2-2 3-4 4l-6 1 71 72z m-60-69c2-1 4-4 5-6 0-2 0-3-1-7h2l-3-4c-1-3-3-7-5-12 21 33 35 56 46 74l-44-45z m158 4v-31l-4-5c-11-17-24-36-37-54l-5 3 19 35c9 17 16 31 21 41l6 11z m-17-45c3 4 5 8 8 12l3 4v5c-4-6-7-13-11-21z m17-17v-17l-17-17 9 18c1 2 1 3 2 4l6 12z m-116-118l5-2-6-13-23-23 14 22c3 5 7 11 10 16z m-45-19l5-3-34-66-26-26 11 19c14 25 29 50 44 76z" />
<glyph glyph-name="hand-drawn-alt-left" horiz-adv-x="1000" unicode="&#xea83;" d="M778 50h-281c-5 0-10 2-13 6l-281 281v26l0 1 280 280c4 4 9 6 14 6h281c11 0 20-9 20-20 0-6-4-12-9-16l-264-264 267-266c5-6 7-14 4-22-3-7-11-12-18-12z m-570 289l280-279c2-3 6-4 9-4h281c5 0 10 3 12 8 2 6 1 12-3 16l-270 270 2 2 266 267c4 3 7 7 7 11 0 8-6 14-13 14l-2 0 0 0h-280c-3 0-7-1-9-4l-280-279v-22z m508-255l-31 0-3 1c-13 10-39 26-104 64l3 5c39-20 73-38 97-50 11-7 20-11 28-15l10-5z m-29 5h5c-5 3-10 6-17 9-2 1-4 2-6 4 7-5 12-9 16-11l2-2z m-32-5l-42 0c0 0-1 1-3 1-8 6-21 14-42 27l-77 49 3 5 161-82z m-40 5h15l-79 41 20-13c21-13 34-21 42-27 1 0 2 0 2-1z m-33-5h-31l0 0c-18 12-39 26-59 40l3 5 42-22c14-8 25-13 35-18l10-5z m-29 5h5c-6 4-13 7-21 11 6-3 11-7 16-11z m-33-5h-17l-17 17 17-9c2-1 4-2 5-3l12-5z m221 2l-181 107 3 5c55-28 79-40 90-45 4-1 6-2 7-2l1 0c2 1 3 2 4 4 0 0 1 1 1 1l1 4 4-3 70-71z m-101 67l65-38-36 35c-1-2-4-4-6-5-2 0-3-1-12 3-3 1-6 3-11 5z m4 23c-23 16-67 43-146 92l3 5c33-16 53-26 62-29l0 0c3-1 5-2 6-2 0 0 1 0 1 0 2 1 3 2 4 4 0 0 0 1 0 2l2 5 71-72-3-5z m-95 67c32-20 56-35 74-46l-45 44c-1-2-4-4-6-4-1-1-3-1-7 0v-2l-5 3c-2 1-6 3-11 5z m-149-49l-14 6-22 23 22-14c5-3 11-7 16-10l-2-5z m-20 45l-67 35-25 25 19-11c25-14 50-29 76-43l-3-6z m34 17c-114 58-148 75-162 80l-1 0-2 2-3 3 0 0-9 9 2 2 264 264h241l-5-5-251-251c-2-1-2-3-3-4v-1l-1-1c0-1 0-3 0-4l0-3 1-2c1-2 1-3 3-5l63-64-3-4-97 68 3 5c11-5 17-7 19-7 0 0 1 0 1 0 3 1 4 3 5 5v0l0 3-1 2c0 1-1 2-1 2l-14 12c-13 11-27 23-40 34l-19 16 76-38c3-2 8 0 9 3 2 3 2 4-4 10l-1 1c-6 6-17 16-37 33l-17 16 74-38c4-2 8-1 10 2 2 3 1 7-1 9l-63 60 18-10c14-7 28-15 38-20 21-11 28-14 30-14 1 0 1 0 2 0 2 1 3 2 4 4 2 3 2 4-4 10l-2 1c-4 4-11 9-20 17l3 5 33-17c3-2 8 0 9 3 2 3 2 4-4 10l-1 1 0 1c-1 1-2 1-4 2-4 2-10 6-18 18l-3 5 6-1c18-7 27-12 33-15 4-2 7-3 7-3 4 1 5 3 6 4 0 3-1 5-2 7l-62 58 18-9c51-27 64-33 67-33 1 0 1 0 2 0 3 1 4 3 5 6 0 2 0 5-2 6-12 10-26 22-39 34l-19 16 22-11c39-20 52-27 56-27 0 0 1 1 1 1 3 0 4 2 5 5 0 2 0 5-2 7-10 10-23 23-36 36l-13 13 17-9c40-21 51-26 54-26 1 0 1 0 2 1 2 0 3 1 4 3 1 2 1 4 1 6l-13 37 7-4c18-9 25-12 28-13l-3 7 3 8c-7 3-25 13-40 21l-8 4-4-3c-2-2-3-5-2-8l13-38-6 3c-22 11-56 29-82 42l-8 4-3-3c-1-1-1-2-2-2-2-4-2-6 38-46l13-13-17 8c-23 12-49 26-70 37-1 1-3 1-5 0-2-1-4-2-4-3-2-3-2-4 4-10l0-1c6-6 16-15 35-32l19-16-22 11c-40 21-52 27-55 27-1 0-1 0-2 0-2-1-4-3-4-6-1-2 0-5 2-6l62-60-18 10c-21 11-45 23-64 32l0 1c-4 1-8 0-10-3-2-3-1-7 2-9l53-43-66 34c-3 2-8 1-10-3-1-3-2-4 4-9l1-2c5-3 10-8 18-14l-3-5c-22 11-30 15-33 15-1 0-1 0-2 0-2-1-3-2-4-4-1-3-1-6 1-9l61-57-18 9c-48 25-64 33-67 33l-1 0c-2-1-3-2-4-4-2-3-2-4 4-10 3-3 7-7 14-13 6-5 14-12 24-21l18-16-75 39c-3 1-8 0-10-3-1-3-1-4 5-10l0-1c7-7 20-19 49-44l19-16-22 12c-24 11-48 24-68 34-4 3-7 1-9-2-2-3-2-7 2-10l132-94-3-5c-49 25-106 55-153 80-3 1-4 1-6 1-2-1-3-2-4-4-1-3-2-4 4-9l2-1 0-1 2-1c17-14 62-42 171-110l-2-5c-6 3-12 6-18 9l-34 17c-88 45-124 64-139 71l-3 2 0-1-3 1c-3 2-4 2-5 2l-9-15 5 3 2-1 151-89-3-5z m59 76l50-35-39 39c-1 0-1 1-1 1-2-2-4-4-7-5 0 0-1 0-3 0z m-200 36l3-1 5-3c15-6 49-24 129-65-67 42-99 62-112 73-1 0-2 1-4 2l-3 2 1 1c-7 6-7 10-4 15 1 3 4 5 7 6 4 1 6 1 10-1 36-18 77-40 117-60l-99 69c-5 4-7 12-4 18 4 6 12 8 18 4 13-7 29-15 45-23-17 14-25 22-30 28l-1 0c-7 8-7 12-5 17 3 6 11 9 18 6l33-17c-2 2-5 4-7 6-7 6-11 10-14 12-8 9-8 12-5 18 2 3 4 5 8 6 0 0 1 1 2 1 4 0 9-3 52-24l-31 29c-5 4-6 10-3 15 1 4 4 6 8 7 1 0 2 1 3 1 2 0 5-1 12-4l0 1c-7 7-6 10-4 15 3 6 12 9 18 5l14-7-8 6c-5 5-6 12-3 18 4 5 11 7 17 4l0 0c14-7 30-15 47-24l-33 31c-4 4-5 8-4 13 1 4 4 8 9 9 1 1 2 1 3 1 4 0 9-2 37-17-9 8-14 13-17 16l-2 2 0 1c-7 7-7 11-4 15 1 3 4 6 7 7 4 1 7 0 10-1 16-9 35-19 54-28-26 27-29 32-26 38h-31l-261-261 5-5 15 23 1 1c1 0 3 0 7-1l0 0z m-15-28c10-4 31-14 74-36l-68 40-6-4z m187 45c8-6 15-13 22-19l12-10 0 0v1l0 1c1 2 3 4 4 6l5 4c-4-1-8-1-11 1l-32 16z m46 5c6-7 6-10 4-15l17 18c-3-1-7-1-10 0l-33 17c9-8 15-14 19-18l3-1 0-1z m-7 55l33-30c4-4 5-10 3-15l20 21c0 0 0 0-1 0-1-1-2-1-3-1-4 0-8 2-33 15-5 3-12 6-19 10z m59-2c7-7 7-10 5-15l12 13c-3-2-8-2-11 0l-9 4 1 0 2-1 0-1z m20 19c6-7 6-10 4-15l15 15c-1 0-2 0-3-1-3-1-4 0-12 4-4 2-11 6-22 11 4-4 7-6 10-7 2-1 3-2 5-4l3-2 0-1z m-10 50l31-30c4-3 5-7 4-12 0-1 0-1-1-2l22 21c-1 0-1 0-1 0-1 0-2-1-4-1-4 0-11 3-51 24z m39 17c7-7 14-13 20-18 4-3 5-8 4-12 0-1 0-2 0-3l17 18c0-1-1-1-1-1-1 0-2 0-3 0-4 0-10 2-37 16z m22 29c9-8 16-16 23-23 4-4 5-8 4-12 0-1-1-2-1-2l20 19-1 0c-1 0-2-1-3-1-4 0-10 2-42 19z m46 22l7-24c1-3 1-6 0-9l23 23-1 0c-2-1-3-1-4-1-4 0-8 2-25 11z m28 2l3-10 39 39h-73c16-9 30-16 32-17l2-1-3-11z m-119 29c21-11 46-24 64-33l-8 24c-1 3-1 6 0 9 0 0-56 0-56 0z" />
<glyph glyph-name="hand-drawn-alt-right" horiz-adv-x="1000" unicode="&#xea84;" d="M503 50h-280c-8 0-16 5-19 12-3 8-1 16 5 22l266 266-265 265c-4 3-7 9-7 15 0 11 8 20 19 20h281c5 0 10-2 14-6l281-281v-26l-1-1-280-280c-4-4-9-6-14-6z m-282 594c-7 0-13-6-13-14 0-4 3-8 6-11l269-269-2-2-268-268c-4-4-5-10-3-16 2-5 7-8 13-8h280c3 0 7 1 9 4l280 279v22l-280 279c-2 3-6 4-9 4h-282z m276-560h-17l12 5 5 3 17 9-17-17z m-48 0h-31l11 5c9 5 20 10 34 18l42 22 3-5c-20-14-41-28-59-40l0 0z m-7 5h5c5 4 11 8 16 11-8-4-15-7-21-11z m-56-5h-41l161 82 3-6-77-48c-21-13-34-21-42-26-1-1-2-2-3-2l-1 0z m-16 5h15c1 1 1 1 2 2 8 5 20 13 42 26l20 13-79-41z m-56-5h-30l10 5c8 4 17 8 28 15 24 12 58 29 97 50l3-5c-65-38-91-54-104-63l-4-2z m-6 5h5l2 2c4 3 9 6 16 11-2-2-4-3-6-4-6-3-12-6-17-9z m-49-3l74 74 1-4c1 0 1-1 1-1 1-2 2-3 4-4 2 0 5 1 8 2 11 5 35 17 90 45l3-5-181-107z m72 64l-36-35 65 38c-4-2-8-4-10-5-6-2-8-3-10-3-1 0-2 0-2 0-3 1-6 3-7 5z m26 26l-4 5 72 71 1-5c0 0 0-1 0-1 1-2 2-3 4-4 0 0 1 0 1 0 1 0 3 1 6 2l1 0c9 4 29 13 61 29l3-5c-79-49-123-76-145-92z m65 65l-45-44c18 11 42 26 74 46-5-2-8-4-11-5l-5-4 0 3c-4-1-6-1-7-1-2 1-5 3-6 5z m179-47l-3 5c5 3 11 7 16 10l22 14-23-23-12-6z m19 45l-3 6c26 14 51 29 76 43l19 11-26-26-66-34z m-34 17l-3 5 153 90 5-3-9 15c-1 0-2 0-5-2l-3-1 0 1-2-2c-16-7-52-26-140-71l-34-17c-6-3-12-6-18-9l-3 5c110 68 155 96 172 110 1 0 2 1 2 1l0 1 2 1c6 5 5 6 4 9-1 2-2 3-4 4-2 0-3 0-6-1-47-25-104-55-153-80l-3 5 133 94c3 2 3 7 2 10-2 3-7 4-10 2-20-10-44-23-67-35l-23-11 19 16c29 25 43 37 49 44l1 0c5 7 5 8 4 10-2 4-7 5-10 3l-75-38 18 16c10 9 18 16 24 21 7 6 11 10 14 13 6 6 6 7 4 10-1 2-2 3-4 3-1 1-1 1-1 1-3 0-19-8-67-33l-18-9 61 57c2 3 3 6 1 9-1 1-2 3-4 3-1 1-1 1-2 1-3 0-11-4-33-15l-3 5c9 7 14 11 18 15l1 0c6 6 5 7 4 10-2 3-6 5-10 3l-66-33 53 42c3 2 4 6 2 9-2 3-6 4-9 3l-1 0c-19-10-42-22-64-33l-18-10 63 60c1 1 2 4 2 6-1 3-3 5-5 6-1 0-1 0-2 0-3 0-15-6-55-27l-22-11 19 16c20 17 29 26 35 32l1 1c5 6 5 7 4 10-1 1-3 3-5 3-1 1-4 0-5 0-21-11-47-25-70-37l-17-8 13 13c40 40 40 42 38 46-1 0-1 1-2 1l-3 4-8-4c-26-13-60-31-82-42l-6-3 13 38c0 3 0 5-2 7l-4 4-8-4c-15-8-33-18-40-21l3-8-3-7c3 1 10 4 28 13l7 4-13-38c0-1 0-3 1-5s2-3 4-3c1-1 1-1 2-1 3 0 14 5 54 26l17 9-13-13c-13-13-25-26-36-36-2-2-3-5-2-7 1-3 2-5 5-5 0 0 1-1 1-1 4 0 17 7 56 27l22 11-18-16c-14-12-28-24-39-33-2-2-3-5-3-7 1-3 3-5 5-6 1 0 1 0 2 0 4 0 16 6 67 33l18 10-61-59c-2-2-3-4-2-7 0-1 1-3 5-4h0c1 0 3 1 7 3 6 3 16 8 33 15l1 1h6l-3-5c-8-12-14-15-19-18-2-1-3-1-4-2l0-1-1-1c-6-6-6-7-4-10 1-3 6-5 9-3l33 17 3-5c-10-8-17-14-21-18l-1 0c-6-6-6-7-4-10 1-2 3-3 4-4 1 0 2 0 2 0 2 0 9 3 30 14 10 5 24 13 38 20l18 10-62-60c-3-2-3-6-1-9 2-3 5-4 9-2l74 38-17-16c-20-17-31-27-37-33l-1-1c-6-6-6-7-4-10 1-3 6-5 9-3l76 39-19-16c-13-12-27-24-40-35l-14-12c0 0-1-1-1-1l-1-3 0-3 0 0c1-2 2-4 5-5 0 0 0 0 1 0 2 0 8 2 19 7l3-5-97-68-4 4 64 64c1 1 2 3 3 5l1 2 0 3c0 2 0 3-1 5l0 1c-1 1-2 3-3 4l-256 257h241l1-1 265-266-9-9 0-1-5-4-1 0c-14-5-48-22-162-80z m-69 81c0 0 0-1 0-1l-40-39 50 35c-1 0-2 0-3 1-3 0-5 2-7 4z m192 40l0-1-3-2c-1-1-3-1-4-2-13-11-45-31-112-73 80 41 114 59 129 66l8 4 0-1c4 1 6 1 7 1l1-1 1-1 14-22 5 5-260 261h-31c2-6 0-11-27-38 19 9 38 19 54 28 3 1 7 2 10 1 3-2 6-4 8-7 2-4 2-7-4-15l0-1-3-2c-3-3-8-8-16-16 27 15 32 17 36 17 1 0 2 0 3-1 5-1 8-5 9-9 1-5 0-9-4-13l-32-31c16 8 32 17 46 24l1 0c5 3 12 1 16-5 3-5 2-13-3-17l-8-6 14 7c7 4 15 1 18-5 3-5 3-9-4-16l0 0 0 0c7 3 10 4 12 4 2 0 3-1 4-1 3-1 6-4 7-7 3-5 2-11-2-15l-31-29c42 22 47 24 51 24 1 0 2-1 3-1 3-1 6-3 7-6 3-6 3-9-5-18-3-3-7-6-14-12-2-2-4-4-7-6l33 17c7 3 15 0 18-6 3-5 2-8-5-17l-1 0c-5-6-13-14-30-28 16 8 32 17 45 24 2 1 4 1 6 1 5 0 9-2 11-6 4-6 2-14-3-17l-99-70c40 20 81 42 117 60 4 2 7 2 10 1 3-1 6-3 7-6 3-5 3-9-3-15z m27-33l-68-40c43 22 64 32 75 36l-7 4z m-215 12l0 0 12 10c7 6 14 13 22 19l-32-16c-3-2-7-2-11-1l4-4c2-2 4-4 5-6l0 0 0-2z m-33 37l17-17c-2 4-1 7 4 14l0 0 3 2c4 4 10 10 19 18l-33-17c-3-1-7-1-10 0z m-28 28l20-21c-2 5 0 11 4 15l32 30c-7-4-14-7-19-10-25-13-29-15-33-15-1 0-2 0-3 1-1 0-1 0-1 0z m-20 19l13-12c-3 5-3 8 4 15l0 1 2 1 1 0-9-4c-3-2-7-2-11-1z m-22 22l15-15c-2 5-1 8 5 15l-1 0 2 2 1 1c2 1 3 2 5 3 3 2 6 3 10 7-11-5-18-8-22-10-8-4-9-5-12-4-1 1-2 1-3 1z m-27 27l22-21c-1 1-1 1-1 2-1 4 0 9 4 12l31 30c-40-21-47-24-51-24-2 0-3 0-4 1 0 0 0 0-1 0z m-24 25l17-18c0 1 0 2 0 3-1 4 0 9 4 12 6 5 13 11 20 18-26-14-33-16-37-16-1 0-2 0-3 0 0 0-1 0-1 1z m-27 26l20-19c0 0 0 1-1 2-1 4 1 8 4 12 7 7 15 15 23 23-32-17-37-19-41-19-2 0-3 1-4 1 0 0 0 0-1 0z m-29 30l22-23c-1 3-1 6 0 9l7 24c-17-9-21-11-25-11-1 0-2 0-4 1l0 0z m-41 41l39-39 3 10-3 11 2 1c3 1 16 8 32 17l-73 0z m105 0c1-3 1-6 0-9l-8-24c18 9 43 22 64 33h-56z" />
<glyph glyph-name="hand-drawn-alt-up" horiz-adv-x="1000" unicode="&#xea85;" d="M220 53c-11 0-20 8-20 19v281c0 5 2 10 6 14l281 281h26l1-1 280-280c4-4 6-9 6-14v-280c0-8-5-16-12-19-8-3-16-1-22 5l-266 266-265-265c-3-4-9-7-15-7z m-14 18c1-7 6-13 14-13 4 0 8 3 11 6l269 269 2-2 269-268c3-4 9-5 15-3 5 2 8 7 8 13v280c0 3-1 7-4 9l-279 280h-22l-279-280c-3-2-4-6-4-9v-280l1-1-1-1z m28 35v241l0 1 266 265 9-9 1 0 4-5 0-1c5-14 22-48 80-162l-5-3-90 153 3 5-15-9c0-1 0-2 2-5l1-3-1 0 2-2c7-16 26-52 70-140l18-34c3-6 6-12 9-18l-5-2c-68 109-96 154-110 171l-1 2 0 0-2 2c-4 4-5 5-6 5-1 0-2 0-3-1-2-1-3-2-3-4-1-2-1-3 0-6 27-50 57-108 80-153l-5-3-94 133c-2 3-6 3-10 2-1-1-3-3-3-5 0-1 0-3 1-5 10-19 23-44 35-67l11-23-16 19c-25 29-37 43-44 49-4 4-6 6-8 6 0 0-1-1-2-1-4-2-5-6-3-10l38-75-16 18c-9 10-16 18-21 24-6 7-10 11-13 14-3 3-6 5-7 5-1 0-2 0-3-1-2-1-3-2-3-4-1-3 1-9 32-68l9-18-57 61c-3 2-6 2-9 1-2-1-3-2-4-4 0-3-1-4 15-35l-5-3c-7 9-11 14-15 18l0 1c-4 3-6 5-7 5-1 0-2-1-3-1-4-2-5-6-3-10l33-66-18 23c-8 10-17 21-24 30-2 3-7 4-10 2-3-2-4-6-2-9l1-3c10-19 22-41 32-62l9-18-59 62c-2 2-4 3-7 2-2 0-4-2-5-4-1-4 0-5 27-57l11-22-16 19c-17 19-26 29-32 34l-1 1c-3 4-6 5-7 5-1 0-1 0-2-1-2-1-3-2-4-4-1-2 0-4 0-5 11-21 25-47 37-70l8-17-13 13c-27 27-39 38-43 38-1 0-1 0-3 0 0-1-1-1-1-2l-4-4 4-7c13-26 31-60 42-82l3-6-38 13c-3 0-6 0-7-2l-4-4 4-8c7-13 17-33 21-40l8 2 7-2c-1 3-4 9-13 28l-4 6 37-12c2 0 4 0 6 1 2 1 3 2 3 4 1 3 1 6-25 56l-9 17 13-13c13-13 26-26 36-36 2-2 5-3 7-2 2 0 4 2 5 5 1 3 0 6-26 57l-11 22 16-19c12-13 23-27 33-39 2-2 5-3 7-2 3 1 5 2 6 5 1 4-1 7-33 68l-10 19 59-62c2-1 4-2 7-2 1 1 3 2 4 5 0 1 0 2-3 8-3 5-8 15-15 33l-1 1v5l5-3c12-8 15-14 18-18 1-2 1-3 2-4l1-1 1 0c3-4 6-5 7-5 1 0 2 0 3 1 2 0 3 2 3 4 1 2 1 3 0 5l-17 33 5 3c8-10 14-17 18-22l0 0c4-4 6-5 7-5 1 0 2 0 3 1 2 1 3 2 4 4 1 3 1 3-14 32-5 10-13 23-20 37l-10 19 60-63c2-2 6-3 9-1 2 2 3 4 3 6 0 1 0 2-1 3l-38 75 16-18c17-19 27-31 33-37l1 0c4-4 6-6 7-6 1 0 2 1 3 1 4 2 5 7 3 10l-38 76 16-19c11-12 22-26 32-38l14-16c0 0 1-1 2-1l2-1 2 0h1c2 1 4 2 5 5 0 1 1 3-7 20l5 3 68-97-4-3-64 64c-1 1-3 2-5 2l-2 1-3 1c-2 0-3-1-4-1l-1-1h0c-2 0-3-1-5-2l-256-257z m5 87v-73l40 39-11 3-11-3-1 2c-1 2-8 16-17 32z m31-2c12-23 12-24 10-29l0-1 23 22c-3-1-6-1-9 0l-24 8z m22 45c20-39 20-40 18-45 0 0 0 0 0-1l20 20c-1 0-2-1-2-1-5-1-9 1-13 4-7 7-14 15-23 23z m29 22c18-34 17-35 16-40 0 0 0-1 0-1l17 17c-1 0-2 0-3 0-4-1-9 0-12 4-5 6-11 13-18 20z m-77-32c1 0 3 0 4-1l24-8c-9 18-22 43-33 64v-56c2 0 3 1 5 1z m94 71c25-48 25-49 23-55 0 0 0 0 0-1l21 22c-1-1-1-1-2-1-4-1-9 0-12 4l-30 31z m37 8c5-11 8-18 10-22 4-8 5-9 4-12-1-1-1-2-1-3l15 15c-4-1-8-2-15 4l0 0-2 2-1 1c-1 2-2 3-3 5-2 3-3 6-7 10z m-132 9c5 0 10-3 34-27-9 19-19 38-28 54-1 3-2 6 0 10 1 3 3 6 6 8 1 0 3 1 5 1 3 0 6-1 10-5l1 0 2-3c4-3 8-8 16-16-18 34-18 34-16 40 1 4 5 7 9 8 5 1 9 0 13-3l31-33c-8 15-16 30-22 43l-2 4c-3 6-1 12 4 16 6 3 14 2 18-3 2-3 4-5 6-8l-7 15c-2 3-2 6-1 10 1 3 3 6 6 7 2 1 4 2 6 2 3 0 5-2 9-5l1 0v0c-4 9-4 12-3 15 1 3 3 6 7 8 4 2 11 1 15-3l29-31c-25 49-24 50-23 54 1 3 3 6 6 7 2 1 4 2 6 2 3 0 6-2 12-7 3-3 6-7 12-14 2-2 4-4 6-7l-17 34c-3 6 0 14 6 17 2 1 3 2 5 2 3 0 7-2 12-7l0 0c6-5 14-14 28-31-8 17-16 32-23 46-2 2-3 5-2 9 1 3 3 6 6 8 6 3 14 2 18-3l69-99c-19 37-40 79-60 116-1 3-2 6-1 10 1 3 3 6 6 8 2 1 4 1 6 1 2 0 5-1 9-5l1 1 4-7c11-14 31-45 73-113-41 80-59 115-65 129l-5 8 1 0c-1 4-1 6-1 8l1 1 1 0 22 14-5 5-261-260v-31c1 0 3 0 4 0z m162-4l4-9c2-3 2-6 1-10 0 0 0-1 0-1l12 12c-4-2-8-2-15 5l0 0-2 2c0 1 0 1 0 1z m0 56c4-7 7-14 10-19 16-31 16-31 15-36-1-1-1-1-1-1l21 20c-5-1-11 0-14 4l-31 32z m108 1l1 0 39-40-35 50c0-1 0-2 0-3-1-3-3-5-5-7z m-73 14l17-33c1-2 1-4 1-6 0-1 0-3-1-4l18 17c-2-1-3-1-5-1-2 0-5 1-10 5l0 0-2 3c-4 4-10 10-18 19z m25 24l16-32c2-3 2-7 1-11l4 5c2 1 4 3 6 4l1 0h0c1 0 1 0 1 0l-12 14c-5 6-11 13-17 20z m41 181l40-68c-22 43-32 64-36 75l-4-7z m258-477l-74 74 4 1c0 0 1 1 2 1 1 1 2 2 3 4 0 1 0 1 0 1 0 1-1 3-2 7-5 11-17 35-45 90l5 3 107-181z m-64 72l35-36-38 65c2-4 4-8 5-10 3-6 3-8 3-10 0-1 0-2 0-2-1-3-3-6-5-7z m67-47l-6 10c-4 8-8 17-14 28-13 24-30 58-51 97l5 3c38-65 54-91 63-104l2-5 1-29z m-18 47c1-2 2-4 3-6 3-6 6-12 9-17v5l-2 2c-2 4-6 9-10 16z m18 15l-82 161 5 2 49-79c13-20 20-32 26-40 1-1 1-2 1-3l1-1 0-40z m-47 103l41-79v15c-1 1-1 1-1 2-6 7-13 19-26 40l-14 22z m-51-96l-71 72 6 1c2 1 3 2 4 4 0 1 0 2-1 7l-1 2c-5 11-14 30-29 60l5 3c51-82 77-123 92-145l-5-4z m-60 69l44-45c-11 18-25 41-46 74 2-5 4-9 5-12l3-4h-2c1-4 1-5 1-7-1-2-3-5-5-6z m158-4l-6 11c-5 10-12 24-21 41l-18 35 5 3c12-18 25-37 36-54l4-5 0-31z m-17 45c4-8 7-15 11-21v5l-3 4c-3 4-5 8-8 12z m17 17l-6 12-2 4-9 18 17-17v-17z m-116 118c-3 5-7 11-10 16l-14 22 23-23 6-12-5-3z m-45 19c-15 26-30 51-44 76l-11 19 26-26 34-66-5-3z" />
<glyph glyph-name="hand-drawn-down" horiz-adv-x="1000" unicode="&#xea86;" d="M217 648c-9 0-17-8-17-17 0 0 0-1 0-1v-283c0-4 2-8 5-12l283-282h24l283 282c3 4 5 8 5 12v283c0 7-4 13-10 16-7 3-14 1-19-4l-271-271-269 269c-3 5-8 8-14 8z m456-151c-15-23-42-66-93-148 19 38 27 55 30 64l0 0c3 6 2 7 2 9-1 2-3 4-5 6-1 0-2 0-2 0l68 69z m79 78l-96-163c29 57 41 80 45 91 3 5 3 7 3 9 0 0 0 1 0 1-1 3-3 5-5 6-1 0-2 1-2 1l55 55z m13-40c-10-13-28-42-64-105 20 40 38 74 51 98 6 12 10 21 14 28v-18l-1-3z m-2-184c1 2 2 4 3 6v-3l-3-3z m-37-8c5 10 10 20 15 29 11 21 19 37 25 49v-18c-12-18-26-39-40-60z m-37-1l77 152v-29c0 0 0-1-1-2-6-9-15-23-30-46l-46-75z m-182-40c9 19 9 20 8 23-1 4-4 6-8 7h0c1 1 3 2 5 3l64 65-69-98z m138-69c3 6 7 11 10 17-2-5-4-9-6-13l-4-4z m-80-80c14 25 29 51 44 77l-34-67-10-10z m-55-54l-7 13 89 152c-58-113-76-151-81-165l-1 0 0 0z m-276 293c1 0 2-1 3-2 6-3 7-3 49 39-12-24-26-51-36-71-2-2-2-5-1-8 1-3 3-5 5-6 3-2 5-3 13 5l1-1 0 2c7 5 16 16 33 35-29-55-29-55-27-60 1-3 4-6 7-6 4-1 7 0 10 2l45 49c-11-22-23-47-33-66-3-4-1-10 3-13 5-3 11-2 14 3 7 9 16 20 24 30l-20-40c-3-5-1-11 4-14 4-2 6-3 13 5l1-1 0 1c4 4 8 10 15 19-16-33-16-34-15-38 1-2 3-4 6-6 4-2 8-1 12 3l43 46c-34-67-33-67-32-71 0-2 2-4 5-6 4-2 6-3 14 5 3 3 7 8 12 14 6 6 13 14 22 25l-28-55c-2-5 0-11 5-14 3-1 5-2 13 5l1 1c7 7 20 21 44 49-12-23-25-48-35-68-3-5-1-11 3-14 5-2 11-1 14 3l95 134c-26-50-56-108-81-155-1-2-1-5 0-8 0-2 2-4 5-5 3-2 5-3 12 4l1 0 3 5c13 17 42 63 111 173l-10-18c-58-114-80-157-88-175l-4-5 1-1c-2-5-2-6-1-8l25-15-10-10-266 266 0 37z m10 87l32 10c-11-21-29-56-42-82v75c3-3 7-4 10-3z m-10 110l254-254c2-1 4-2 6-3h0c2-1 4-1 7-1-1-1-3-1-3-2-14-16-31-36-47-55l28 54c2 5 0 11-5 14-4 2-5 3-13-5l-1 0 0-1c-6-6-17-17-34-37 9 18 19 38 28 54 0 2 1 3 1 5 0 3-2 6-5 8-4 3-9 2-13-1l-45-48c7 14 14 28 20 38 15 30 15 30 14 34-1 3-3 5-5 6-4 2-6 3-14-5h0c0 0 0 0 0-1-4-4-10-11-18-21l17 33c2 5 0 11-5 13-3 2-5 3-13-4l-1 0-1-2c-4-4-3-11-20-22 17 38 20 40 19 43-1 3-3 6-7 7s-7 0-9-3l-45-47c35 67 35 67 33 72-1 3-4 6-8 7-3 0-7-1-9-4-10-11-22-25-34-39 28 55 28 56 26 60-1 4-3 6-7 7-3 1-7 0-9-2-11-11-24-24-37-37 28 54 28 55 26 60-1 2-2 4-5 5-2 2-5 2-8 1l-30-10c15 29 15 29 13 34l-9-3-10 3c-1-3-12-24-22-43l0 92z" />
<glyph glyph-name="hand-drawn-left" horiz-adv-x="1000" unicode="&#xea87;" d="M800 636c0 9-8 17-17 17 0 0 0 0-1 0h-285c-4 0-9-2-12-5l-285-286v-24l285-285c3-3 8-5 12-5h286c7 0 13 4 15 10 3 7 2 14-3 19l-274 273 272 272c4 3 7 8 7 14z m-152-461c-23 16-67 43-149 94 38-19 55-27 64-30l0 0v0c6-2 8-2 9-2 3 1 5 3 6 5 0 1 0 2 0 3l70-70z m79-79l-164 97c57-29 81-41 91-46 6-2 8-3 9-3 1 0 1 0 2 1 2 0 4 2 6 5 0 0 0 1 0 2l56-56z m-40-13c-14 10-43 28-106 65 40-21 75-39 98-52 12-6 21-10 29-14h-18l-3 1z m-186 2c2-1 4-2 6-3h-3l-3 3z m-8 37c10-5 20-10 29-15 21-11 37-19 49-25h-18c-18 12-39 26-60 40z m-1 38l153-78h-29c0 0-1 0-2 1-9 6-23 15-47 30l-75 47z m-40 183c18-9 20-9 23-8 3 1 6 4 7 8l0 0c0-2 2-3 3-5l65-65-98 70z m-70-139c6-3 11-7 17-10l-13 6-4 4z m-80 80c25-14 51-29 77-44l-67 35-10 9z m-56 56l14 7 154-90c-115 59-153 77-167 82l-1 1c0 0 0 0 0 0z m297 278c-1 0-2-1-2-2-3-6-4-8 38-50-24 12-50 26-71 37-2 1-6 1-8 0-3 0-5-2-6-5-2-3-3-5 4-13l0 0 1-1c6-6 17-16 36-33-55 29-55 29-60 28-4-2-6-4-7-8-1-3 0-7 3-10l48-46c-22 12-46 24-65 34h0c-5 2-11 1-13-3-3-5-2-11 2-14 9-7 20-16 31-25l-41 21c-5 3-11 1-14-4-2-4-3-6 5-14l0 0 1-1c3-3 9-8 18-15-33 17-34 16-38 15-2-1-4-3-6-5-2-4-1-9 2-12l47-44c-67 34-68 34-71 33-3-1-5-3-6-5-2-4-3-6 5-14 3-4 7-8 14-13 6-6 14-13 25-22l-55 28c-5 3-12 1-14-4-2-4-3-6 5-14l0-1c7-7 22-20 50-44-24 12-49 25-69 35-4 3-11 1-13-3-3-5-2-11 2-14l136-96c-51 26-110 57-157 82-3 1-5 1-8 0-2-1-4-2-6-5-1-3-3-6 5-13l0-1c1 0 3-1 4-2 18-14 64-42 175-112-6 3-12 6-18 10-115 58-159 81-176 89l-6 3 0-1c-6 3-7 2-8 2l-16-26-10 10 268 268h39z m87-10l10-32c-22 11-57 29-82 42h75c-3-2-4-6-3-10z m111 10l-256-256c-2-2-3-4-4-6l0 0c0-2-1-4-1-6 0 1-1 2-2 3-16 13-36 30-55 47l55-28c5-3 11-1 13 4 2 4 3 6-4 14l0 0-1 0c-6 7-18 17-38 35 18-10 38-20 55-28 1-1 3-1 4-1 4 0 7 1 9 4 3 4 2 10-2 14l-48 45c14-7 28-14 38-20 31-16 31-16 35-14 3 1 5 2 6 5 2 4 3 6-5 14l0 0c0 0 0 0 0 0-5 4-12 10-22 18l33-17c5-2 11 0 14 5 2 3 3 5-5 13l0 1-1 1c-5 4-12 3-23 20h0c39-17 40-20 44-19 3 1 6 3 7 7 0 4-1 7-3 10l-48 45c67-35 68-35 72-34 4 1 7 4 7 8 1 4 0 7-3 10-12 10-26 22-40 34 56-29 57-28 61-27 4 1 6 4 7 7 1 4 0 8-3 10-10 11-24 24-36 37 54-28 55-28 60-26 2 0 4 2 6 5 1 2 1 5 0 7l-10 31c29-15 30-15 34-13l-3 9 3 10c-3 1-24 12-43 22l93 0z" />
<glyph glyph-name="hand-drawn-right" horiz-adv-x="1000" unicode="&#xea88;" d="M207 622l272-272-274-273c-5-5-6-12-3-19 2-6 9-10 15-10h286c4 0 9 1 12 5l285 285v24l-285 286c-3 3-8 5-12 5h-286c0-1 0-1 0 0-9 0-17-8-17-18 0-5 3-10 7-13z m169-423l46 46c0-1-1-2 0-3 1-2 3-4 6-5 1 0 3 0 9 2v0l0 0c8 3 26 11 64 30-82-51-126-78-149-94l24 24z m-76-76l29 29c0-1 0-2 0-2 2-3 4-5 6-5 1-1 1-1 2-1 1 0 3 1 9 3 10 5 34 17 91 46l-164-97 27 27z m10-41h-18c7 4 17 8 29 15 23 12 58 30 98 51-63-37-92-55-106-65l-3-1z m186 0h-3c2 1 4 2 6 3l-3-3z m-49 0h-18c12 6 28 14 49 25 9 5 19 10 29 15-21-14-42-28-60-40z m-14 31c-24-15-38-24-46-30-2-1-3-1-3-1h-29l153 78-75-47z m17 160l65 65c1 2 2 3 3 5l0 0c1-4 4-7 7-8 3-1 4-1 23 8l-98-70z m164-73l-13-6c6 3 11 7 17 10l-4-4z m74 74l-67-34c26 15 52 30 77 44l-10-10z m65 66l0 0c-14-6-52-24-167-83l154 91 14-8-1 0z m-257 278l268-268-10-10-16 26c-1 0-2 1-8-2l0 1-6-3c-17-8-61-31-176-89l-18-10c111 70 157 98 175 112 1 1 3 2 4 2l0 1c8 7 6 10 5 13-2 3-4 4-6 5-3 1-6 1-8 0-47-25-106-56-157-82l135 96c5 3 6 9 3 14s-9 6-13 3c-20-10-45-23-69-35 28 24 43 37 50 45l0 0c8 8 7 10 5 14-3 5-9 7-14 4l-55-28c10 9 19 16 25 22 6 5 11 10 14 13 8 8 7 10 5 14-1 2-4 4-6 5-4 1-4 1-71-33l46 44c4 3 5 8 2 12-1 3-3 4-6 5-3 1-5 2-37-15 8 7 14 12 18 16l1 0 0 0c8 8 7 10 5 14-3 5-9 7-14 4l-41-21c11 9 21 18 31 25 4 3 5 9 2 14-3 4-8 6-13 3h0c-19-10-44-22-66-34l49 46c2 3 4 7 3 10-1 4-4 7-7 8-5 1-5 1-60-28 19 17 29 27 35 33l2 1-1 0c8 8 7 10 5 13-1 3-4 5-6 5s-6 1-8 0c-21-11-48-25-71-37 42 43 41 44 38 50 0 1-1 2-2 2l39 0z m-129 0h75c-26-13-60-31-82-42l10 32c1 4 0 8-3 10z m-15 0c-19-10-40-21-43-22l3-10-3-9c4-2 5-2 34 13l-10-31c-1-2-1-5 0-8 2-2 4-4 6-5 5-1 6-1 60 27-13-13-26-26-36-37-3-3-4-6-3-10 1-3 3-6 7-7 4-1 5-2 60 27-13-12-27-24-39-34-3-3-4-6-3-10 0-4 3-7 6-8 5-1 6-1 73 34l-48-45c-2-3-3-7-3-10 1-4 4-6 7-7 4-1 5 2 44 19h0c-11-17-18-16-23-20l-1-1 0-1c-8-8-7-10-5-13 3-5 9-8 14-5l33 17c-10-8-17-14-22-18l0 0 0 0c-8-8-7-10-5-14 1-3 3-4 6-5 4-2 4-2 34 14 11 5 25 13 39 20l-49-46c-3-3-4-9-1-13 2-3 5-4 8-4 2 0 3 0 5 1 17 8 36 18 55 28-20-18-32-28-38-35l-1 0 0-1c-8-7-7-9-5-13 3-5 9-7 14-4l55 27c-19-16-39-33-55-47-1 0-2-2-3-3 1 3 0 5-1 7l0 0c-1 2-2 4-4 6l-256 256 94 0z" />
<glyph glyph-name="hand-drawn-up" horiz-adv-x="1000" unicode="&#xea89;" d="M231 60l269 269 271-271c5-5 12-7 19-4 6 3 10 9 10 16v283c0 4-2 9-5 12l-283 283h-24l-283-283c-3-4-5-8-5-12v-283c0 0 0 0 0-1 0-9 8-16 17-16 6 0 11 2 14 7z m419 167l-46 45c1 0 2 0 3 0 2 2 4 4 5 6 0 2 1 3-2 9l0 0c-3 9-11 26-30 64 51-82 78-125 93-148l-23 24z m76-76l-29 29c0 0 1 0 2 1 2 1 4 3 5 6 0 0 0 1 0 1 0 2 0 4-3 9-4 10-16 34-45 90l96-162-26 26z m40 11v-18c-4 7-8 16-14 28-13 24-31 58-51 98 36-63 54-92 63-105l2-3z m0 184v-3c-1 2-2 4-3 6l3-3z m0-49v-18c-6 13-14 28-25 49-5 9-10 19-15 29 14-21 28-42 40-60z m-31-14c15-23 24-37 30-46 1-1 1-2 1-2v-29l-77 152 46-75z m-158 17l-65 65c-2 1-3 2-5 3h0c4 1 7 4 8 7 1 3 1 4-8 23l70-98z m72 163c2-4 4-8 6-13l-10 17 4-4z m-74 74l34-67c-15 26-30 52-44 77l10-10z m-65 64l0 0c6-14 24-51 82-165l-89 152 7 14 0-1z m-276-255l266 266 10-10-26-16c0-2-1-2 2-8l-1 0 3-6c8-17 31-60 89-175 3-6 6-12 9-18-69 111-97 156-111 174 0 1-1 3-2 5l-1-1c-7 8-9 7-13 5-2-1-4-3-5-6-1-3 0-5 1-8 24-47 55-105 81-155l-95 134c-3 4-9 6-14 3-5-3-7-9-4-14 11-19 24-44 36-68-24 28-37 43-45 50l0 0c-8 8-10 7-14 5-5-3-7-9-4-14l28-54c-9 10-16 18-22 24-5 6-10 11-13 14-8 8-10 7-14 5-2-1-4-3-5-6-1-3-1-4 33-71l-44 47c-3 3-8 4-12 2-2-1-4-4-5-6-1-4-2-5 15-37-7 8-12 14-15 18l-1 1 0 0c-7 7-9 6-13 4-5-2-7-8-5-13l21-41c-9 11-17 22-24 31-4 4-10 5-14 2s-6-8-3-13c9-19 22-43 33-65l-46 48c-2 2-6 4-9 3-4-1-7-4-8-7-1-5-1-5 27-60-16 19-26 30-32 36l-1 1 0 0c-8 7-10 6-13 4-3-1-4-3-5-6-1-2-1-5 0-8 11-20 25-47 37-70-42 42-44 41-50 38-1-1-2-1-2-2l0 38z m0-128v75c13-26 31-60 42-82l-32 10c-3 1-7 0-10-3z m0-14c10-20 21-41 22-44l10 4 9-3c2 4 2 5-13 33l31-10c2-1 5-1 7 1 3 1 5 3 5 6 2 4 2 5-26 59 13-13 26-26 37-36 2-3 6-4 9-3s6 3 8 7c1 4 1 5-27 60 12-14 24-28 34-39 2-3 6-4 9-4 4 1 7 4 8 7 2 5 2 5-33 72l45-47c2-3 6-4 9-3 4 1 6 3 7 7 1 3-2 4-19 43 17-11 16-18 20-23l1-1 1 0c8-7 10-6 13-5 5 3 7 9 5 14l-17 33c8-10 14-17 18-22l0 0h0c8-8 10-7 14-5 2 1 4 3 5 6 1 4 1 4-14 34-6 10-13 24-20 38l45-48c4-4 9-4 13-1 3 2 5 5 5 8 0 2-1 3-1 5-9 16-19 36-28 54 17-20 28-31 34-38l0-1 1 1c8-8 9-7 13-5 5 3 7 9 5 14l-28 54c16-19 33-39 47-55 0-1 2-1 3-2-3 0-5 0-7-1h0c-2-1-4-2-6-4l-254-254v94z" />
<glyph glyph-name="hand-grippers" horiz-adv-x="1000" unicode="&#xea8a;" d="M344 448c-10 6-20 11-34 18 37 52 8 94-19 143-13-38-24-72-37-105-5-10-17-22-27-24-42-7-66-28-72-69 55-52 48-95-20-123-24-10-30-27-11-50 34-42 24-81-25-102-30-13-33-33-18-58 26-44 19-71-24-97-10-7-21-23-22-35-4-39 18-64 54-76 20-7 41-13 62-20h55c24 17 46 32 44 70-6 157 31 303 113 438 20 34 15 67-19 90z m610-431l-4 16c-1 1-1 2-1 2-32 120-63 239-95 358-18 70-29 80-100 88-24 80-47 161-73 241-27 85-102 132-196 128-77-4-149-66-167-146-19-81 20-165 92-206 74-41 166-29 226 32 8 8 12 19 18 29l10-8c9-29 17-58 26-87-69-34-75-59-39-122 71-123 105-257 103-399 0-32 4-57 22-78 0-1 18-19 69-13 0 0 34 4 69 17 3 1 6 3 9 4l2 1c12 6 22 14 30 24 19 24 7 87-1 119z m-450 521c-67-1-125 56-126 123-1 67 56 125 123 126 67 1 125-56 126-123 1-67-56-125-123-126z" />
<glyph glyph-name="hand-left" horiz-adv-x="1000" unicode="&#xea8b;" d="M702 75c9 7 23 9 35 12 22 6 43 11 65 16 12 3 18 8 18 22-1 86-1 173 0 260 0 12-4 18-17 21-39 10-78 21-116 33-10 3-21 9-28 17-51 58-101 117-151 175-15 17-32 27-55 21-23-5-37-18-44-40-6-19 0-36 13-51 22-27 45-53 67-80 2-2 4-5 5-8 2-5-1-11-6-13-3-1-6-1-10-1-104-1-208-1-312-1h-41c-38 0-62-19-62-51-1-31 24-53 61-53 14 0 28 0 42 0h194c4 0 8-1 12-1 6-1 11-3 12-5 0-2-4-5-9-6-3-1-6-1-9-1-37-1-73 0-110-1-29 0-49-17-51-43-1-25 16-45 44-47 41-2 81-1 122-2 4 0 8 0 12-1 2 0 4 0 6-1 4-1 5-5 3-7-2-1-3-2-5-2-3-1-6-2-9-2-31 0-62 0-93 0-28 0-44-15-45-40-1-24 19-46 45-46 43-1 86 0 129-1 3 0 7 0 10-1 5-1 9-4 9-6 0-2-4-4-9-5-3 0-7-1-10-1-30 0-61 0-91 0-24 0-39-13-43-36-3-20 9-42 29-48 9-3 20-4 30-4 91-1 183-1 275-1 32 1 62 7 88 29z m143 305v-256c0-15 12-27 28-27h37c15 0 28 12 28 27v256c0 15-13 27-28 27h-37c-16 0-28-12-28-27z" />
<glyph glyph-name="hand-right" horiz-adv-x="1000" unicode="&#xea8c;" d="M298 75c-9 7-23 9-35 12-22 6-43 11-65 16-12 3-18 8-18 22 1 86 1 173 0 260 0 12 4 18 17 21 39 10 78 21 116 33 11 3 21 9 28 17 51 58 101 117 151 175 15 17 32 27 56 21 22-5 36-18 43-40 6-19 0-36-13-51-22-27-45-53-67-80-2-2-4-5-5-8-2-5 1-11 6-13 3-1 7-1 10-1 104-1 208-1 312-1h41c38 0 62-19 62-51 1-31-24-53-61-53-14 0-28 0-42 0h-194c-4 0-8-1-11-1-7-1-12-3-12-5-1-2 3-5 8-6 3-1 6-1 9-1 37-1 74 0 110-1 29 0 49-17 51-43 1-25-16-45-44-47-41-2-81-1-122-2-4 0-8 0-12-1-2 0-4 0-6-1-4-1-5-5-3-7 2-1 3-2 5-2 3-1 6-2 9-2 31 0 62 0 93 0 28 0 45-15 45-40 1-24-19-46-45-46-43-1-86 0-129-1-3 0-7 0-10-1-5-1-9-4-9-6 0-2 4-4 9-5 4 0 7-1 10-1 30 0 61 0 91 0 24 0 39-13 43-36 4-20-9-42-29-48-9-3-20-4-30-4-91-1-183-1-275-1-32 1-62 7-88 29z m-143 305v-256c0-15-12-27-28-27h-37c-15 0-27 12-27 27v256c0 15 12 27 27 27h37c16 0 28-12 28-27z" />
<glyph glyph-name="hand-up" horiz-adv-x="1000" unicode="&#xea8d;" d="M775 148c-7-9-9-23-12-35-6-22-11-43-16-65-3-12-8-18-22-18-86 1-173 1-260 0-12 0-18 4-21 17-10 39-21 78-33 116-3 10-9 21-17 28-58 51-117 101-175 151-17 15-26 32-21 56 5 22 18 36 40 43 19 6 36 0 51-12 27-23 53-46 80-68 2-2 5-4 8-5 5-1 11 1 13 6 1 3 1 7 1 10 1 104 1 208 1 312v41c0 38 19 62 51 63 30 0 53-25 53-62 0-14 0-28 0-42v-194c0-4 1-7 1-11 1-7 3-12 5-12 2-1 5 3 6 8 1 3 1 6 1 9 1 37 0 74 1 111 0 28 17 49 43 50 25 1 45-16 47-44 2-40 1-81 2-122 0-3 0-7 1-11 0-3 0-5 1-7 1-4 6-5 7-2 1 1 2 3 2 5 1 3 2 6 2 9 0 31 0 62 0 93 0 27 15 44 40 45 24 1 46-19 46-45 1-43 0-86 1-129 0-4 0-7 1-10 1-5 4-10 6-10 2 1 4 5 5 10 0 3 1 6 1 9 0 31 0 61 0 92 0 24 13 39 36 43 20 3 42-9 48-29 3-10 4-20 4-30 1-92 1-184 0-275 0-33-6-63-28-89z m-305-143h256c15 0 27-12 27-28v-37c0-15-12-28-27-28h-256c-15 0-27 13-27 28v37c0 16 12 28 27 28z" />
<glyph glyph-name="line-block-down" horiz-adv-x="1000" unicode="&#xea8e;" d="M500 243l283 292 40-38-323-332-322 332 39 38z m438-331v876h-875v-876h875z m-32 32h-812v812h812v-812z m-689 591z" />
<glyph glyph-name="line-block-left" horiz-adv-x="1000" unicode="&#xea8f;" d="M393 350l292 283-38 40-332-323 332-322 38 39z m-331-438h876v876h-876v-876z m844 844v-812h-812v812h812z m-221-689z" />
<glyph glyph-name="line-block-right" horiz-adv-x="1000" unicode="&#xea90;" d="M315 67l38-40 332 323-332 322-38-39 292-283z m-253 721v-876h876v876h-876z m844-844h-812v812h812v-812z m-591 689z" />
<glyph glyph-name="line-block-up" horiz-adv-x="1000" unicode="&#xea91;" d="M500 457l283-292 40 38-323 332-322-332 39-38z m-437 331v-876h875v876h-875z m843-844h-812v812h812v-812z m-689 221z" />
<glyph glyph-name="long-arrow-down" horiz-adv-x="1000" unicode="&#xea92;" d="M537 624v-412h110c14 0 18-8 8-18l-137-136c-10-10-26-10-36 0l-136 136c-11 10-7 18 7 18h110v412c0 14 11 26 26 26h23c14 0 25-12 25-26z" />
<glyph glyph-name="long-arrow-left" horiz-adv-x="1000" unicode="&#xea93;" d="M774 313c14 0 26 11 26 26v22c0 15-12 26-26 26h-412v110c0 14-8 18-18 8l-136-137c-10-10-10-26 0-36l136-136c10-11 18-7 18 7v110h412z" />
<glyph glyph-name="long-arrow-right" horiz-adv-x="1000" unicode="&#xea94;" d="M226 313h412v-110c0-14 8-18 18-7l136 136c11 10 11 26 0 36l-136 137c-10 10-18 6-18-8v-110h-412c-14 0-26-11-26-25v-23c0-15 12-26 26-26z" />
<glyph glyph-name="long-arrow-up" horiz-adv-x="1000" unicode="&#xea95;" d="M537 76v412h110c14 0 18 8 8 18l-137 136c-10 11-26 11-36 0l-136-136c-11-10-7-18 7-18h110v-412c0-14 11-26 26-26h23c14 0 25 12 25 26z" />
<glyph glyph-name="rounded-collapse" horiz-adv-x="1000" unicode="&#xea96;" d="M478 418c6-6 14-9 22-9s16 3 23 9l163 164c12 12 12 32 0 45l-14 14c-13 12-33 12-45 0l-104-104c-7-7-15-10-23-10s-16 3-22 10l-105 104c-12 12-32 12-45 0l-14-14c-12-13-12-33 0-45l164-164z m45-136c-7 6-15 9-23 9s-16-3-22-9l-164-164c-12-12-12-32 0-45l14-14c13-12 33-12 45 0l105 105c6 6 14 9 22 9s16-3 23-9l104-105c12-12 32-12 45 0l14 14c12 13 12 33 0 45l-163 164z" />
<glyph glyph-name="rounded-double-left" horiz-adv-x="1000" unicode="&#xea97;" d="M212 378l203 203c15 16 40 16 56 0l17-17c16-16 16-41 0-56l-129-130c-8-8-12-18-12-28s4-20 12-28l129-130c16-15 16-40 0-56l-17-17c-16-16-41-16-56 0l-203 203c-8 8-12 18-12 28 0 10 4 20 12 28z m300 0l203 203c15 16 40 16 56 0l17-17c16-16 16-41 0-56l-129-130c-8-8-12-18-12-28s4-20 12-28l129-130c16-15 16-40 0-56l-17-17c-16-16-41-16-56 0l-203 203c-8 8-12 18-12 28 0 10 4 20 12 28z" />
<glyph glyph-name="rounded-double-right" horiz-adv-x="1000" unicode="&#xea98;" d="M788 378l-203 203c-15 16-40 16-56 0l-17-17c-16-16-16-41 0-56l129-130c8-8 12-18 12-28s-4-20-12-28l-129-130c-16-15-16-40 0-56l17-17c16-16 41-16 56 0l203 203c8 8 12 18 12 28 0 10-4 20-12 28z m-300 0l-203 203c-15 16-40 16-56 0l-17-17c-16-16-16-41 0-56l129-130c8-8 12-18 12-28s-4-20-12-28l-129-130c-16-15-16-40 0-56l17-17c16-16 41-16 56 0l203 203c8 8 12 18 12 28 0 10-4 20-12 28z" />
<glyph glyph-name="rounded-down" horiz-adv-x="1000" unicode="&#xea99;" d="M786 430l-251-251c-10-9-22-14-35-14s-25 5-34 14l-251 251c-20 19-20 50 0 69l21 22c19 19 50 19 69 0l161-160c9-10 22-14 34-14s25 4 35 14l160 160c19 19 50 19 69 0l22-22c19-19 19-50 0-69z" />
<glyph glyph-name="rounded-expand" horiz-adv-x="1000" unicode="&#xea9a;" d="M328 418c13-12 33-12 45 0l105 105c6 6 14 9 22 9s16-3 23-9l104-105c12-12 32-12 45 0l14 14c12 13 12 33 0 45l-163 164c-7 6-15 9-23 9s-16-3-22-9l-164-164c-12-12-12-32 0-45l14-14z m344-136c-13 12-33 12-45 0l-104-104c-7-7-15-10-23-10s-16 3-22 10l-105 104c-12 12-32 12-45 0l-14-14c-12-13-12-33 0-45l164-164c6-6 14-9 22-9s16 3 23 9l163 164c12 12 12 32 0 45l-14 14z" />
<glyph glyph-name="rounded-left-down" horiz-adv-x="1000" unicode="&#xea9b;" d="M288 138c-9 9-14 21-14 35v355c0 27 22 49 49 49h30c27 0 49-22 49-49v-227c0-13 6-26 14-35s22-14 35-14h227c27 0 49-22 49-49v-30c0-28-22-49-49-49h-355c-14 0-26 5-35 14z" />
<glyph glyph-name="rounded-left-up" horiz-adv-x="1000" unicode="&#xea9c;" d="M288 562c9 9 21 14 35 14h355c27 0 49-21 49-49v-30c0-27-22-49-49-49h-227c-13 0-26-5-35-14s-14-21-14-35v-226c0-28-22-49-49-49h-30c-28 0-49 21-49 49v355c0 13 5 25 14 34z" />
<glyph glyph-name="rounded-left" horiz-adv-x="1000" unicode="&#xea9d;" d="M649 64l22 22c19 19 19 50 0 69l-160 160c-10 10-15 22-15 35s5 25 15 35l160 160c19 19 19 50 0 69l-22 22c-19 19-50 19-69 0l-251-251c-9-10-14-22-14-35s4-25 14-35l251-251c19-19 50-19 69 0z" />
<glyph glyph-name="rounded-right-down" horiz-adv-x="1000" unicode="&#xea9e;" d="M712 138c9 9 14 21 14 35v355c0 27-21 49-49 49h-30c-27 0-49-22-49-49v-227c0-13-5-26-14-35s-21-14-35-14h-226c-28 0-49-22-49-49v-30c0-28 21-49 49-49h355c13 0 25 5 34 14z" />
<glyph glyph-name="rounded-right-up" horiz-adv-x="1000" unicode="&#xea9f;" d="M712 562c-9 9-21 14-34 14h-355c-28 0-49-21-49-49v-30c0-27 21-49 49-49h226c14 0 26-5 35-14s14-21 14-35v-226c0-28 22-49 49-49h31c27 0 49 21 49 49v355c0 13-6 25-15 34z" />
<glyph glyph-name="rounded-right" horiz-adv-x="1000" unicode="&#xeaa0;" d="M420 64l251 251c10 10 14 23 14 35s-4 25-14 35l-251 251c-19 19-50 19-69 0l-22-22c-19-19-19-50 0-69l160-160c10-10 15-22 15-35s-5-25-15-35l-160-160c-19-19-19-50 0-69l22-22c19-19 50-19 69 0z" />
<glyph glyph-name="rounded-up" horiz-adv-x="1000" unicode="&#xeaa1;" d="M786 270l-251 251c-10 10-22 14-35 14s-25-5-34-14l-251-251c-20-19-20-50 0-69l21-22c19-19 50-19 69 0l161 160c9 10 22 15 34 15s25-5 35-15l160-160c19-19 50-19 69 0l22 22c19 19 19 50 0 69z" />
<glyph glyph-name="scroll-bubble-down" horiz-adv-x="1000" unicode="&#xeaa2;" d="M500 850c-151 0-273-122-273-273v-454c0-151 122-273 273-273s273 122 273 273v454c0 151-122 273-273 273z m236-727c0-130-106-236-236-236s-236 106-236 236v454c0 131 106 237 236 237s236-106 236-237l0-454z m-165-93c0-39-32-71-71-71s-71 32-71 71c0 39 32 71 71 71s71-32 71-71z m-19 136c0-28-24-51-52-51-28 0-51 23-51 51s23 52 51 52c29 0 52-23 52-52z m-15 102c0-20-16-37-37-37-21 0-37 17-37 37 0 21 17 37 37 37 21 0 37-17 37-37z" />
<glyph glyph-name="scroll-bubble-left" horiz-adv-x="1000" unicode="&#xeaa3;" d="M1000 350c0 151-122 273-273 273h-454c-151 0-273-122-273-273s122-273 273-273h454c151 0 273 122 273 273z m-273 236c131 0 237-106 237-236s-106-236-237-236h-454c-130 0-236 106-236 236s106 236 236 236h454z m-618-236c0 39 32 71 71 71s71-32 71-71-32-71-71-71-71 32-71 71z m156 0c0 29 23 52 51 52s52-24 52-52c0-28-23-51-52-51s-51 23-51 51z m116 0c0 21 17 37 37 37s37-16 37-37-16-37-37-37-37 17-37 37z" />
<glyph glyph-name="scroll-bubble-right" horiz-adv-x="1000" unicode="&#xeaa4;" d="M0 350c0-151 122-273 273-273h454c151 0 273 122 273 273s-122 273-273 273h-454c-151 0-273-122-273-273z m727 236c130 0 236-106 236-236s-106-236-236-236h-454c-131 0-237 106-237 236s106 236 237 236h454z m164-236c0-39-32-71-71-71s-71 32-71 71 32 71 71 71 71-32 71-71z m-156 0c0-28-23-51-51-51s-52 23-52 51c0 29 23 52 52 52s51-23 51-52z m-116 0c0-20-17-37-37-37s-37 17-37 37 16 37 37 37 37-16 37-37z" />
<glyph glyph-name="scroll-bubble-up" horiz-adv-x="1000" unicode="&#xeaa5;" d="M773 123v454c0 151-122 273-273 273s-273-122-273-273v-454c0-151 122-273 273-273s273 122 273 273z m-37 0c0-130-106-236-236-236s-236 105-236 236v454c0 131 106 237 236 237s236-107 236-237v-454z m-165 547c0-39-32-71-71-71s-71 32-71 71 32 71 71 71 71-31 71-71z m-19-136c0-29-24-52-52-52-28 0-51 24-51 52 0 28 23 51 51 51 29 0 52-23 52-51z m-15-102c0-20-16-37-37-37s-37 17-37 37 17 37 37 37c21 0 37-16 37-37z" />
<glyph glyph-name="scroll-double-down" horiz-adv-x="1000" unicode="&#xeaa6;" d="M227 577v-454c0-151 122-273 273-273s273 122 273 273v454c0 151-122 273-273 273s-273-122-273-273z m37 0c0 131 106 237 236 237s236-107 236-237v-454c0-131-105-237-236-237s-236 106-236 237v454z m344-304l-108-108-108 108c-3 3-8 3-12 0-3-3-3-8 0-12l114-113c2-2 4-3 6-3s4 1 6 3l114 113c3 4 3 9 0 12-3 3-9 3-12 0z m49-137l-157-156-156 156c-5 5-13 5-17 0-5-4-5-12 0-16l165-165c2-3 5-4 8-4 3 0 6 1 8 4l165 165c5 4 5 12 0 16-4 5-12 5-16 0z" />
<glyph glyph-name="scroll-double-left" horiz-adv-x="1000" unicode="&#xeaa7;" d="M727 623h-454c-151 0-273-122-273-273s122-273 273-273h454c151 0 273 122 273 273 0 151-122 273-273 273z m-454-37h454c131 0 237-106 237-236s-106-236-237-236h-454c-130 0-236 106-236 236s105 236 236 236z m-5-239l54-54c2-1 4-1 6 0s1 4 0 6l-52 51 52 51c1 2 1 4 0 6s-4 1-6 0l-54-54c-1-1-1-2-1-3s0-2 1-3z m-23 115c3 4 3 9 0 12-4 3-9 3-12 0l-119-118c-1-2-2-4-2-6 0-2 1-4 2-6l119-118c3-3 8-3 12 0 3 3 3 9 0 12l-113 112 113 112z" />
<glyph glyph-name="scroll-double-right" horiz-adv-x="1000" unicode="&#xeaa8;" d="M0 350c0-151 122-273 273-273h454c151 0 273 122 273 273s-122 273-273 273h-454c-151 0-273-122-273-273z m727 236c130 0 236-106 236-236s-106-236-236-236h-454c-130 0-236 106-236 236s106 236 236 236h454z m5-239c1 1 1 2 1 3s0 2-1 3l-54 54c-2 1-4 1-6 0s-1-4 0-6l52-51-52-51c-1-2-1-4 0-6s4-1 6 0l54 54z m23 115l113-112-113-112c-3-4-3-9 0-12 4-4 9-4 12 0l119 118c1 2 2 4 2 6 0 2-1 4-2 6l-119 118c-3 3-8 3-12 0-3-3-3-8 0-12z" />
<glyph glyph-name="scroll-double-up" horiz-adv-x="1000" unicode="&#xeaa9;" d="M773 123v454c0 151-122 273-273 273s-273-122-273-273v-454c0-151 122-273 273-273s273 122 273 273z m-37 0c0-131-106-237-236-237s-236 106-236 237v454c0 131 106 237 236 237s236-107 236-237v-454z m-239 459c1 1 2 1 3 1 1 0 2 0 3-1l54-54c1-2 1-4 0-6s-4-1-6 0l-51 52-51-52c-2-1-4-1-6 0s-1 4 0 6l54 54z m115 23l-112 113-112-113c-4-3-9-3-12 0-4 4-4 9 0 12l118 119c2 1 4 2 6 2 2 0 4-1 6-2l118-119c3-3 3-8 0-12-3-3-8-3-12 0z" />
<glyph glyph-name="scroll-down" horiz-adv-x="1000" unicode="&#xeaaa;" d="M500 850c-151 0-273-122-273-273v-454c0-151 122-273 273-273s273 122 273 273v454c0 151-122 273-273 273z m236-727c0-131-106-237-236-237s-236 106-236 237v454c0 131 106 237 236 237s236-106 236-237l0-454z m-99-39l-129-130c-5-4-11-4-16 0l-129 130c-5 4-5 11 0 15l26 26c4 4 11 4 15 0l89-89c4-4 11-4 15 0l89 89c4 4 11 4 15 0l26-26c4-4 4-11-1-15z" />
<glyph glyph-name="scroll-left" horiz-adv-x="1000" unicode="&#xeaab;" d="M1000 350c0 151-122 273-273 273h-454c-151 0-273-122-273-273s122-273 273-273h454c151 0 273 122 273 273z m-273 236c131 0 237-106 237-236s-106-236-237-236h-454c-130 0-236 106-236 236s106 236 236 236h454z m-452-124l-26 25c-4 5-11 5-15 0l-130-130c-4-4-4-11 0-15l130-130c4-4 11-4 15 0l26 26c4 4 4 11 0 16l-89 88c-4 4-4 11 0 16l89 88c4 4 4 11 0 16z" />
<glyph glyph-name="scroll-long-down" horiz-adv-x="1000" unicode="&#xeaac;" d="M271 621v-381c0-108 75-199 175-223v32c-83 23-144 100-144 190v382c0 109 89 199 198 199s199-90 199-199v-381c0-91-62-168-145-191v-32c100 24 175 115 175 223v381c0 126-102 229-229 229s-229-103-229-229z m206-671v255c0 9 7 16 16 16h14c9 0 16-7 16-16v-255h68c9 0 11-5 5-11l-85-84c-6-7-16-7-22 0l-85 84c-6 6-4 11 5 11h68v0z m30 673h-14c-9 0-16 7-16 16v94c0 9 7 16 16 16h14c9 0 16-7 16-16v-94c0-9-7-16-16-16z" />
<glyph glyph-name="scroll-long-left" horiz-adv-x="1000" unicode="&#xeaad;" d="M771 579c126 0 229-102 229-229s-103-229-229-229h-381c-108 0-199 75-223 175h32c24-83 100-144 191-144h381c110 0 199 89 199 198s-90 199-199 199h-381c-91 0-168-62-191-145h-32c24 100 115 175 223 175l381 0z m-671-206v68c0 9-5 11-11 5l-84-85c-7-6-7-16 0-22l84-84c6-7 11-5 11 4v68h255c9 0 16 7 16 16v14c0 9-7 16-16 16l-255 0z m673-30c0-9 7-16 16-16h94c9 0 16 7 16 16v14c0 9-7 16-16 16h-94c-9 0-16-7-16-16v-14z" />
<glyph glyph-name="scroll-long-right" horiz-adv-x="1000" unicode="&#xeaae;" d="M229 579h382c107 0 198-74 222-175h-32c-23 83-100 145-190 145h-382c-109 0-199-90-199-199s90-198 199-198h381c91 0 168 61 191 144h32c-24-100-115-175-223-175h-381c-126 0-229 102-229 229s103 229 229 229z m671-206h-255c-9 0-16-7-16-16v-14c0-9 7-16 16-16h255v-68c0-9 5-11 11-5l84 85c7 6 7 16 0 22l-84 84c-6 7-11 4-11-4v-68z m-673-30v14c0 9-7 16-16 16h-94c-9 0-16-7-16-16v-14c0-9 7-16 16-16h94c9 0 16 7 16 16z" />
<glyph glyph-name="scroll-long-up" horiz-adv-x="1000" unicode="&#xeaaf;" d="M729 79v382c0 107-75 198-175 222v-32c83-23 144-100 144-190v-382c0-109-89-199-198-199s-199 90-199 199v382c0 90 62 167 145 190v32c-100-24-175-115-175-222v-382c0-126 102-229 229-229s229 103 229 229z m-206 671v-255c0-9-7-16-16-16h-14c-9 0-16 7-16 16v255h-68c-9 0-11 5-4 11l84 84c6 7 16 7 22 0l85-84c6-6 4-11-5-11h-68z m-30-673h14c9 0 16-7 16-16v-94c0-9-7-16-16-16h-14c-9 0-16 7-16 16v94c0 9 7 16 16 16z" />
<glyph glyph-name="scroll-right" horiz-adv-x="1000" unicode="&#xeab0;" d="M0 350c0-151 122-273 273-273h454c151 0 273 122 273 273s-122 273-273 273h-454c-151 0-273-122-273-273z m727 236c130 0 236-106 236-236s-106-236-236-236h-454c-131 0-237 106-237 236s106 236 237 236h454z m-2-124c-4-5-4-12 0-16l89-88c4-5 4-12 0-16l-89-88c-4-5-4-12 0-16l26-26c4-4 11-4 16 0l129 130c4 4 4 11 0 15l-130 130c-4 5-11 5-15 0l-26-25z" />
<glyph glyph-name="scroll-up" horiz-adv-x="1000" unicode="&#xeab1;" d="M773 123v454c0 151-122 273-273 273s-273-122-273-273v-454c0-151 122-273 273-273s273 122 273 273z m-37 0c0-131-106-237-236-237s-236 106-236 237v454c0 131 106 237 236 237s236-107 236-237v-454z m-124 452c-5-4-12-4-16 0l-88 89c-5 4-11 4-16 0l-88-89c-5-4-11-4-16 0l-26 26c-4 4-4 11 0 16l130 129c5 5 11 5 16 0l129-129c5-5 5-12 0-16l-25-26z" />
<glyph glyph-name="simple-down" horiz-adv-x="1000" unicode="&#xeab2;" d="M200 457l300-300 300 300-85 86-215-215-215 215-85-86z" />
<glyph glyph-name="simple-left-down" horiz-adv-x="1000" unicode="&#xeab3;" d="M200 50h600v170h-430v430h-170v-600z" />
<glyph glyph-name="simple-left-up" horiz-adv-x="1000" unicode="&#xeab4;" d="M200 650v-600h170v430h430v170h-600z" />
<glyph glyph-name="simple-left" horiz-adv-x="1000" unicode="&#xeab5;" d="M607 650l-300-300 300-300 86 85-215 215 215 215z" />
<glyph glyph-name="simple-right-down" horiz-adv-x="1000" unicode="&#xeab6;" d="M800 220v430h-170v-430h-430v-170h600v170z" />
<glyph glyph-name="simple-right-up" horiz-adv-x="1000" unicode="&#xeab7;" d="M630 650h-430v-170h430v-430h170v600h-170z" />
<glyph glyph-name="simple-right" horiz-adv-x="1000" unicode="&#xeab8;" d="M393 50l300 300-300 300-85-85 214-215-215-215z" />
<glyph glyph-name="simple-up" horiz-adv-x="1000" unicode="&#xeab9;" d="M285 157l215 215 215-215 85 86-300 300-300-300 85-86z" />
<glyph glyph-name="square-down" horiz-adv-x="1000" unicode="&#xeaba;" d="M871 788h-742c-37 0-66-30-66-67v-742c0-37 29-66 66-66h742c37 0 66 29 66 66v742c1 37-29 67-66 67z m-57-337l-296-296c-10-10-26-10-35 0l-296 296c-10 10-10 26 0 35l59 59c9 10 25 10 35 0l202-202c9-10 25-10 35 0l202 202c9 10 25 10 35 0l59-59c9-9 9-25 0-35z" />
<glyph glyph-name="square-left" horiz-adv-x="1000" unicode="&#xeabb;" d="M938-21v742c0 37-30 67-67 67h-742c-37 0-66-30-66-67v-742c0-37 29-66 66-66h742c37-1 67 29 67 66z m-337 57l-296 296c-10 10-10 26 0 35l296 296c10 10 26 10 35 0l59-58c10-10 10-26 0-36l-202-202c-10-9-10-25 0-35l202-202c10-9 10-25 0-35l-59-59c-9-9-25-9-35 0z" />
<glyph glyph-name="square-right" horiz-adv-x="1000" unicode="&#xeabc;" d="M63 721v-742c0-37 29-66 66-66h742c37 0 66 29 66 66v742c0 37-29 67-66 67h-742c-37 0-66-30-66-67z m336-57l296-296c10-10 10-26 0-35l-296-296c-10-10-26-10-35 0l-59 59c-10 9-10 25 0 35l202 202c10 9 10 25 0 35l-202 202c-10 9-10 25 0 35l59 59c9 9 25 9 35 0z" />
<glyph glyph-name="square-up" horiz-adv-x="1000" unicode="&#xeabd;" d="M129-88h742c37 0 66 30 66 67v742c0 37-29 67-66 67h-742c-37 0-66-30-66-67v-742c0-37 29-67 66-67z m57 337l296 296c10 10 26 10 35 0l296-296c10-10 10-26 0-35l-58-59c-10-10-26-10-36 0l-202 202c-9 10-25 10-35 0l-202-202c-9-10-25-10-35 0l-59 59c-9 9-9 25 0 35z" />
<glyph glyph-name="stylish-down" horiz-adv-x="1000" unicode="&#xeabe;" d="M267 614l-48-30c-11-7-11-17 0-24l262-165c11-7 27-7 38 0l178 112c10 7 19 2 19-10v-4c0-12-9-27-19-33-41-26-138-87-178-112-11-7-27-7-38 0l-177 112c-10 6-27 6-37 0-15-9-34-22-48-30-11-7-19-22-19-34v-111c0-12 7-26 16-32l265-167c11-6 27-6 38 0l262 166c11 6 11 17 0 23l-48 30c-10 7-27 7-37 0l-177-112c-11-6-27-6-38 0l-177 112c-10 7-19 22-19 34v3c0 13 8 17 18 11l178-113c11-6 27-6 38 0l178 113c10 6 27 17 37 23l47 30c11 6 19 21 19 34v110c0 12-8 27-19 34-14 9-33 21-47 30-11 7-27 7-38 0l-177-112c-11-6-27-6-38 0l-177 112c-10 7-27 7-37 0z" />
<glyph glyph-name="stylish-left" horiz-adv-x="1000" unicode="&#xeabf;" d="M764 584l-30 47c-7 11-17 11-24 0l-165-262c-7-11-7-27 0-38l112-178c7-10 2-18-10-18h-4c-12 0-27 8-33 18-26 41-87 138-112 178-7 11-7 27 0 38l112 177c6 10 6 27 0 37-9 15-21 34-30 48-7 11-22 19-34 19h-111c-12 0-26-7-32-16l-10-17-157-248c-6-11-6-27 0-38l166-262c6-10 17-10 23 0l30 48c7 10 7 27 0 37l-112 177c-6 11-6 27 0 38l112 177c7 11 22 19 34 19h4c12 1 16-8 10-18l-113-178c-6-11-6-27 0-38l113-178 23-37 30-47c6-11 21-19 34-19h110c12 0 27 8 34 19 9 14 21 33 30 48 6 10 6 27 0 37l-112 177c-6 11-6 27 0 38l112 177c7 11 7 27 0 38z" />
<glyph glyph-name="stylish-right" horiz-adv-x="1000" unicode="&#xeac0;" d="M236 584l30 47c7 11 17 11 24 0l165-262c7-11 7-27 0-38l-112-178c-7-10-2-18 10-18h4c12 0 27 8 33 18 26 41 87 138 112 178 7 11 7 27 0 38l-112 177c-6 11-6 27 0 38 9 14 22 33 31 47 6 11 21 19 33 19h111c12 0 26-7 32-16l11-17 156-248c7-11 7-27 0-38l-165-262c-7-10-17-10-24 0l-30 48c-7 10-7 27 0 37l112 178c6 10 6 27 0 37l-112 177c-7 11-22 19-34 19h-3c-13 1-17-8-11-18l113-178c6-11 6-27 0-38l-113-178-23-37-30-47c-6-11-21-19-33-19h-111c-12 0-27 8-34 19-9 14-21 33-30 48-6 10-6 27 0 37l112 177c7 11 7 27 0 38l-112 177c-6 11-6 27 0 38z" />
<glyph glyph-name="stylish-up" horiz-adv-x="1000" unicode="&#xeac1;" d="M267 86l-48 30c-11 7-11 17 0 24l262 165c11 7 27 7 38 0l178-112c10-7 19-2 19 10v4c0 12-9 27-19 33-41 26-138 87-178 112-11 7-27 7-38 0l-177-112c-10-6-27-6-37 0-15 9-34 22-48 31-11 6-19 21-19 33v111c0 12 7 26 16 32l265 167c11 7 27 7 38 0l262-165c11-7 11-17 0-24l-48-30c-10-7-27-7-37 0l-177 112c-11 6-27 6-38 0l-177-112c-10-7-19-22-19-34v-3c0-13 8-17 18-11l178 113c11 6 27 6 38 0l178-113c10-6 27-16 37-23l47-30c11-6 19-21 19-33v-111c0-12-8-27-19-34-14-9-33-21-47-30-11-6-27-6-38 0l-177 112c-11 7-27 7-38 0l-177-112c-10-6-27-6-37 0z" />
<glyph glyph-name="swoosh-down" horiz-adv-x="1000" unicode="&#xeac2;" d="M509 650l-17-2c-3-1-5-3-5-6v-124l-16-2v98c0 2-1 4-3 5-1 0-3 1-5 1l-20-3c-3-1-5-3-5-5v-351l-109 110c-9 8-23 9-32 2l-58-42c-9-6-10-18-2-26l248-249c8-8 22-8 30 0l248 249c8 8 7 20-2 26l-59 41c-9 7-24 5-32-3l-108-108v331c0 2-1 3-3 4-1 1-3 2-5 1l-16-2c-3 0-5-3-5-5v-94l-16-2v151c0 1-1 3-3 4-1 1-3 1-5 1z" />
<glyph glyph-name="swoosh-left" horiz-adv-x="1000" unicode="&#xeac3;" d="M800 341l-2 17c-1 3-3 5-6 5h-124l-2 16h98c2 0 4 1 5 3 0 1 1 3 1 5l-3 20c-1 3-3 5-5 5h-351l109 109c9 9 10 23 3 32l-42 58c-6 9-18 10-26 2l-249-248c-8-8-8-22 0-30l249-248c8-8 20-7 26 2l41 59c7 9 5 24-3 32l-108 108h331c2 0 3 1 4 3 1 1 2 3 1 5l-2 16c0 3-3 5-5 5h-94l-2 16h151c1 0 3 1 4 3 1 1 1 3 1 5z" />
<glyph glyph-name="swoosh-right" horiz-adv-x="1000" unicode="&#xeac4;" d="M200 341l3 17c0 3 2 5 5 5h124l2 16h-98c-2 0-3 1-5 3 0 1-1 3-1 5l3 20c1 3 3 5 5 5h351l-109 109c-9 9-10 23-3 32l42 58c6 9 18 10 26 2l249-248c8-8 8-22 0-30l-248-248c-9-8-20-7-27 2l-41 59c-7 9-5 24 3 32l108 108h-331c-2 0-3 1-4 3-1 1-2 3-1 5l2 16c0 3 3 5 5 5h94l2 16h-151c-1 0-3 1-4 3-1 1-1 3-1 5z" />
<glyph glyph-name="swoosh-up" horiz-adv-x="1000" unicode="&#xeac5;" d="M509 50l-17 3c-3 0-5 2-5 5v124l-17 2v-98c0-2 0-3-2-4-1-1-3-2-5-1l-20 2c-3 1-5 3-5 5v351l-110-109c-8-9-22-10-31-3l-58 42c-10 6-10 18-2 27l248 248c8 8 21 8 30 0l248-249c8-8 7-20-2-26l-59-41c-10-6-24-5-32 3l-108 108v-331c0-2-1-3-3-4-1-1-3-2-5-1l-16 2c-3 0-5 3-5 5v94l-17 2v-151c0-1 0-3-2-4-1-1-3-1-5-1z" />
<glyph glyph-name="thin-double-left" horiz-adv-x="1000" unicode="&#xeac6;" d="M533 634l-16 16-309-300 309-300 16 16-292 284 292 284z m258 0l-16 16-308-300 308-300 16 16-291 284 291 284z" />
<glyph glyph-name="thin-double-right" horiz-adv-x="1000" unicode="&#xeac7;" d="M467 634l16 16 308-300-308-300-16 16 292 284-292 284z m-259 0l16 16 309-300-309-300-16 16 292 284-292 284z" />
<glyph glyph-name="thin-down" horiz-adv-x="1000" unicode="&#xeac8;" d="M800 497l-300-309-300 309 17 16 283-292 284 291 16-15z" />
<glyph glyph-name="thin-left" horiz-adv-x="1000" unicode="&#xeac9;" d="M663 634l-292-284 291-284-16-16-308 300 308 300 17-16z" />
<glyph glyph-name="thin-right" horiz-adv-x="1000" unicode="&#xeaca;" d="M338 66l292 284-292 284 16 16 308-300-308-300-16 16z" />
<glyph glyph-name="thin-up" horiz-adv-x="1000" unicode="&#xeacb;" d="M784 188l-284 291-284-291-16 16 300 308 300-308-16-16z" />
</font>
</defs>
</svg>
